Регистрация ·  Логин: Пароль: Запомнить   · Забыли пароль?




Ответить на тему
Автор Сообщение

Модератор видео
Аватара пользователя

С нами: 2 года 10 месяцев
Сообщения: 3105
Россия

Сообщение 11 янв 2022, 17:50 

[Цитировать]

Три орешка для Золушки / Tre nøtter til Askepott
Страна: Норвегия, Литва
Жанр: фэнтези, семейный
Год выпуска: 2021
Продолжительность: 01:26:47
Перевод: Профессиональный (дублированный) | КиноПоиск HD
Субтитры: нет
Оригинальная аудиодорожка: нет
Режиссер: Сесиль А. Мосли / Cecilie A. Mosli
В ролях: Астрид Смепласс, Ченгиз Ал, Эллен Доррит Петерсен, Ингрид Гьявер, Бьёрн Сундквист, Энн Марит Якобсен, Надер Хадеми, Торбьорн Харр, Назрин Хусрави, Сьюр Ватне Бреан
Описание: Однажды в заснеженном лесу Золушка встретила прекрасного принца. Они понравились друг другу с первого взгляда, но назвать своего имени девушка не решилась. Ведь она всего лишь сирота на посылках у вредной мачехи и ее дочери. Золушке повезло - охотник вручил ей три волшебных орешка, исполняющих любые желания. Один из них даровал ослепительное платье и приглашение на королевский бал.

Качество видео: WEB-DLRip
Формат видео: AVI
Видео: 720x304 (2.37:1), 24.000 fps, XviD build 73 ~1942 kbps avg, 0.37 bit/pixel
Аудио: 48 kHz, AC3 Dolby Digital, 3/2 (L,C,R,l,r) + LFE ch, ~448 kbps
Сэмпл[/spoiler]
Код:
Код:
Код:
Формат                                   : AVI
Формат/Информация                        : Audio Video Interleave
Размер файла                             : 1,46 Гбайт
Продолжительность                        : 1 ч. 26 м.
Общий поток                              : 2 400 Кбит/сек
Название фильма                          : Три орешка для Золушки_2021_WEB-DLRip
Программа кодирования                    : VirtualDubMod 1.5.10.3 | www.virtualdub-fr.org || (build 2550/release)
Авторское право                          : порошков
Видео
Идентификатор                            : 0
Формат                                   : MPEG-4 Visual
Профиль формата                          : Advanced [email protected]
Настройки формата                        : BVOP1 / Custom Matrix
Параметр BVOP формата                    : 1
Параметр QPel формата                    : Нет
Параметр GMC формата                     : Без точки перехода
Параметр матрицы формата                 : Выборочная
Идентификатор кодека                     : XVID
Идентификатор кодека/Подсказка           : XviD
Продолжительность                        : 1 ч. 26 м.
Битрейт                                  : 1 943 Кбит/сек
Ширина                                   : 720 пикселей
Высота                                   : 304 пикселя
Соотношение сторон                       : 2,35:1
Частота кадров                           : 24,000 кадра/сек
Цветовое пространство                    : YUV
Субдискретизация насыщенности            : 4:2:0
Битовая глубина                          : 8 бит
Тип развёртки                            : Прогрессивная
Метод сжатия                             : С потерями
Бит/(Пиксели*Кадры)                      : 0.370
Размер потока                            : 1,18 Гбайт (81%)
Библиотека кодирования                   : XviD 73
Аудио
Идентификатор                            : 1
Формат                                   : AC-3
Формат/Информация                        : Audio Coding 3
Коммерческое название                    : Dolby Digital
Идентификатор кодека                     : 2000
Продолжительность                        : 1 ч. 26 м.
Вид битрейта                             : Постоянный
Битрейт                                  : 448 Кбит/сек
Каналы                                   : 6 каналов
Channel layout                           : L R C LFE Ls Rs
Частота                                  : 48,0 КГц
Частота кадров                           : 31,250 кадров/сек (1536 SPF)
Метод сжатия                             : С потерями
Размер потока                            : 278 Мбайт (19%)
Выравнивание                             : Разделение по промежуткам
Продолжительность промежутка             : 42  мс. (1,00 видеокадр)
Время предзагрузки промежутка            : 500  мс.
Service kind                             : Complete Main



Download
Для скачивания .torrent файлов необходима регистрация
Сайт не распространяет и не хранит электронные версии произведений, а лишь предоставляет доступ к создаваемому пользователями каталогу ссылок на торрент-файлы, которые содержат только списки хеш-сумм

Помоги нашему сайту любой суммой!


Кошелёк Номер счёта
На баланс телефона: +79046733080
Qiwi (Киви): +79046733080
Банковская карта: 5599 0050 8222 4002
Яндекс деньги (Можно перевести с любой карты): 410011822421129
(Рубли) WebMoney WMP: P981956481128
(Доллары) WebMoney WMZ: Z030977025876



Закрыть окно

Страница 1 из 1

Ответить на тему

   Похожие торренты   Торрент