Регистрация ·  Логин: Пароль: Запомнить   · Забыли пароль?




Ответить на тему
Автор Сообщение

Модератор видео
Аватара пользователя

С нами: 2 года 10 месяцев
Сообщения: 3105
Россия

Сообщение 11 янв 2022, 17:50 

[Цитировать]

Как я полюбила гангстера / Jak pokochalam gangstera
Страна: Польша
Жанр: драма, криминал
Год выпуска: 2022
Продолжительность: 03:05:44
Перевод: Профессиональный (дублированный) VSI Moscow
Субтитры: русские (forced, full) оьдельно
Оригинальная аудиодорожка: нет
Режиссер: Мацей Кавульский / Maciej Kawulski
В ролях: Томаш Влосок, Антони Круликовский, Агнешка Гроховская, Магдалена Лампарская, Кристина Янда, Клаудиуш Кауфманн, Эрик Любос, Себастьян Фабияньский, Юлия Венява-Наркевич, Миколай Кубацкий, Давид Огродник, Кароль Бернацкий, Януш Хабёр, Анита Поддембняк, Анджей Мусял, Рафал Мор, Эвелина Панковская, Клара Белявка, Эдита Хербусь, Анна Чарторыская, Адам Турчык, Марцин Чарник, Паулюс Чижинаускас, Кшиштоф Зажецкий
Описание: фильм основан на действительных фактах и рассказывает о жизни Никодема "Никося" Скотарчака, который прошёл путь от мелкого мошенника до крестного отца мафии польского приморья.

Качество видео: WEB-DLRip
Формат видео: AVI
Видео: 720x304 (2,35:1), 25,000 fps, XviD build 67 ~ 1286 kbps
Аудио: 48 kHz, AC3 Dolby Digital, 3/2 (L,C,R,l,r) + LFE ch, ~ 384 kbps
Формат субтитров: softsub (SRT)
Раздача от:
Код:
Общее
Полное имя                               : E:\Torrents\Jak.pokochalam.gangstera.2022.WEB-DLRip_от New-Team\Jak.pokochalam.gangstera.2022.WEB-DLRip_от New-Team_by_JNS82.avi
Формат                                   : AVI
Формат/Информация                        : Audio Video Interleave
Профиль формата                          : OpenDML
Размер файла                             : 2,18 Гбайт
Продолжительность                        : 3 ч. 5 м.
Общий поток                              : 1 682 Кбит/сек
Программа кодирования                    : VirtualDubModRus 1.5.10.2 (build 2542/release)
Библиотека кодирования                   : VirtualDubMod build 2542/release
Видео
Идентификатор                            : 0
Формат                                   : MPEG-4 Visual
Профиль формата                          : Advanced [email protected]
Настройки формата                        : BVOP1 / Custom Matrix
Параметр BVOP формата                    : 1
Параметр QPel формата                    : Нет
Параметр GMC формата                     : Без точки перехода
Параметр матрицы формата                 : Выборочная
Идентификатор кодека                     : XVID
Идентификатор кодека/Подсказка           : XviD
Продолжительность                        : 3 ч. 5 м.
Битрейт                                  : 1 286 Кбит/сек
Ширина                                   : 720 пикселей
Высота                                   : 304 пикселя
Соотношение сторон                       : 2,35:1
Частота кадров                           : 25,000 кадров/сек
Цветовое пространство                    : YUV
Субдискретизация насыщенности            : 4:2:0
Битовая глубина                          : 8 бит
Тип развёртки                            : Прогрессивная
Метод сжатия                             : С потерями
Бит/(Пиксели*Кадры)                      : 0.235
Размер потока                            : 1,67 Гбайт (76%)
Библиотека кодирования                   : XviD 67
Аудио
Идентификатор                            : 1
Формат                                   : AC-3
Формат/Информация                        : Audio Coding 3
Коммерческое название                    : Dolby Digital
Идентификатор кодека                     : 2000
Продолжительность                        : 3 ч. 5 м.
Вид битрейта                             : Постоянный
Битрейт                                  : 384 Кбит/сек
Каналы                                   : 6 каналов
Channel layout                           : L R C LFE Ls Rs
Частота                                  : 48,0 КГц
Частота кадров                           : 31,250 кадров/сек (1536 SPF)
Метод сжатия                             : С потерями
Размер потока                            : 510 Мбайт (23%)
Выравнивание                             : Разделение по промежуткам
Продолжительность промежутка             : 40  мс. (1,00 видеокадр)
Время предзагрузки промежутка            : 500  мс.
Service kind                             : Complete Main

Download
Для скачивания .torrent файлов необходима регистрация
Сайт не распространяет и не хранит электронные версии произведений, а лишь предоставляет доступ к создаваемому пользователями каталогу ссылок на торрент-файлы, которые содержат только списки хеш-сумм

Помоги нашему сайту любой суммой!


Кошелёк Номер счёта
На баланс телефона: +79046733080
Qiwi (Киви): +79046733080
Банковская карта: 5599 0050 8222 4002
Яндекс деньги (Можно перевести с любой карты): 410011822421129
(Рубли) WebMoney WMP: P981956481128
(Доллары) WebMoney WMZ: Z030977025876



Закрыть окно

Страница 1 из 1

Ответить на тему

   Похожие торренты   Торрент