Регистрация ·  Логин: Пароль: Запомнить   · Забыли пароль?




Ответить на тему
Автор Сообщение

Модератор
Аватара пользователя

С нами: 7 лет 10 месяцев
Сообщения: 31611
Откуда: Гуанчжоу
Китай

Сообщение 16 окт 2021, 18:36 

[Цитировать]

Вечность / Forever (2014) WEB-DLRip [H.264] (сезон 1, серии 1-22 из 22) ТВ3
Производство: США / Good Session, Lin Pictures, Warner Bros. Television
Жанр: фантастика, фэнтези, драма, криминал, детектив

Режиссер: Брэд Андерсон, Джон Т. Кречмер, Зетна Фуэнтес
Актеры: Йоан Гриффит, Алана де ла Гарса, Джоэль Мур, Донни Кешаварц, Джадд Хёрш, Лоррейн Туссен, Маккензи Мози, Берн Горман, Эли Токаш, Кьюба Гудинг мл. и др.

Описание:
Генри Морган, нью-йоркский судмедэксперт экстра-класса изучает мертвых не только для того, чтобы раскрывать самые сложные уголовные дела. Генри пытается найти ответ на единственный вопрос... Он живет на Земле уже больше двухсот лет. После каждой гибели Морган перерождается заново. Очередное «воскрешение» приводит героя к знакомству с детективом полиции Джо Мартинез, вместе с которой ему предстоит поработать на благо родного города и, возможно приблизиться к ответу на главный вопрос своей жизни, разгадать тайну собственного бессмертия...

https://www.imdb.com/title/tt3487382/?ref_=plg_rt_1
Возраст: 16+ (зрителям, достигшим 16 лет)

Продолжительность: ~00:42:00 серия
Качество видео: WEB-DLRip
Перевод: Дублированный (ТВ3)
Субтитры: русские, английские

Видео: AVC/H.264, 1024х576 (16:9), ~2400 kbps
Аудио 1: AC3, 2 ch, 192 Kbps - русский
Аудио 2: AC3, 6 ch, 384 Kbps - английский
Код:
General
Unique ID                   : 185982944210037938006775026326811617816 (0x8BEB031B9A6AC0D8A76FBC94BCC6AA18)
Complete name               : D:\DOWNLOADS\Вечность (2014) WEB-DLRip [H.264]\Вечность - 01 серия.mkv
Format                      : Matroska
Format version              : Version 2
File size                   : 882 MiB
Duration                    : 41 min 23 s
Overall bit rate            : 2 979 kb/s
Encoded date                : UTC 2020-04-16 08:34:07
Writing application         : mkvmerge v7.8.0 ('River Man') 32bit built on Apr  3 2015 12:11:22
Writing library             : libebml v1.3.1 + libmatroska v1.4.2

Video
ID                          : 1
Format                      : AVC
Format/Info                 : Advanced Video Codec
Format profile              : [url=https://nnmclub.to/mailto:[email protected]][email protected][/url]
Format settings             : CABAC / 5 Ref Frames
Format settings, CABAC      : Yes
Format settings, Reference  : 5 frames
Codec ID                    : V_MPEG4/ISO/AVC
Duration                    : 41 min 23 s
Bit rate                    : 2 400 kb/s
Width                       : 1 024 pixels
Height                      : 576 pixels
Display aspect ratio        : 16:9
Frame rate mode             : Constant
Frame rate                  : 25.000 FPS
Color space                 : YUV
Chroma subsampling          : 4:2:0
Bit depth                   : 8 bits
Scan type                   : Progressive
Bits/(Pixel*Frame)          : 0.163
Stream size                 : 694 MiB (79%)
Writing library             : x264 core 146 r2538 121396c
Encoding settings           : cabac=1 / ref=5 / deblock=1:-1:-1 / analyse=0x3:0x133 / me=umh / subme=7 / psy=1 / psy_rd=1.00:0.00 / mixed_ref=1 / me_range=16 / chroma_me=1 / trellis=2 / 8x8dct=1 / cqm=0 / deadzone=21,11 / fast_pskip=0 / chroma_qp_offset=-2 / threads=6 / lookahead_threads=1 / sliced_threads=0 / nr=0 / decimate=1 / interlaced=0 / bluray_compat=0 / constrained_intra=0 / bframes=3 / b_pyramid=2 / b_adapt=2 / b_bias=0 / direct=3 / weightb=1 / open_gop=0 / weightp=2 / keyint=250 / keyint_min=25 / scenecut=40 / intra_refresh=0 / rc_lookahead=50 / rc=2pass / mbtree=1 / bitrate=2400 / ratetol=1.0 / qcomp=0.60 / qpmin=0 / qpmax=69 / qpstep=4 / cplxblur=20.0 / qblur=0.5 / ip_ratio=1.40 / aq=1:1.00
Default                     : Yes
Forced                      : No

Audio #1
ID                          : 2
Format                      : AC-3
Format/Info                 : Audio Coding 3
Commercial name             : Dolby Digital
Codec ID                    : A_AC3
Duration                    : 41 min 23 s
Bit rate mode               : Constant
Bit rate                    : 192 kb/s
Channel(s)                  : 2 channels
Channel layout              : L R
Sampling rate               : 48.0 kHz
Frame rate                  : 31.250 FPS (1536 SPF)
Compression mode            : Lossy
Stream size                 : 56.8 MiB (6%)
Language                    : Russian
Service kind                : Complete Main
Default                     : Yes
Forced                      : No

Audio #2
ID                          : 3
Format                      : AC-3
Format/Info                 : Audio Coding 3
Commercial name             : Dolby Digital
Codec ID                    : A_AC3
Duration                    : 41 min 23 s
Bit rate mode               : Constant
Bit rate                    : 384 kb/s
Channel(s)                  : 6 channels
Channel layout              : L R C LFE Ls Rs
Sampling rate               : 48.0 kHz
Frame rate                  : 31.250 FPS (1536 SPF)
Compression mode            : Lossy
Stream size                 : 114 MiB (13%)
Language                    : English
Service kind                : Complete Main
Default                     : No
Forced                      : No

Text #1
ID                          : 4
Format                      : UTF-8
Codec ID                    : S_TEXT/UTF8
Codec ID/Info               : UTF-8 Plain Text
Language                    : Russian
Default                     : Yes
Forced                      : No

Text #2
ID                          : 5
Format                      : UTF-8
Codec ID                    : S_TEXT/UTF8
Codec ID/Info               : UTF-8 Plain Text
Language                    : English
Default                     : No
Forced                      : No

Скриншоты:

Все одноименные релизы в Клубе
Время раздачи: с 09:00 до 21:00 (до появления первых 3-5 скачавших)

Download
Для скачивания .torrent файлов необходима регистрация
Сайт не распространяет и не хранит электронные версии произведений, а лишь предоставляет доступ к создаваемому пользователями каталогу ссылок на торрент-файлы, которые содержат только списки хеш-сумм

Помоги нашему сайту любой суммой!


Кошелёк Номер счёта
На баланс телефона: +79046733080
Qiwi (Киви): +79046733080
Банковская карта: 5599 0050 8222 4002
Яндекс деньги (Можно перевести с любой карты): 410011822421129
(Рубли) WebMoney WMP: P981956481128
(Доллары) WebMoney WMZ: Z030977025876



Закрыть окно

Страница 1 из 1

Ответить на тему

   Похожие торренты   Торрент