Регистрация ·  Логин: Пароль: Запомнить   · Забыли пароль?




Ответить на тему
Автор Сообщение

Модератор
Аватара пользователя

С нами: 7 лет 10 месяцев
Сообщения: 31611
Откуда: Гуанчжоу
Китай

Сообщение 16 окт 2021, 17:45 

[Цитировать]

Силиконовая долина / Кремниевая долина / Silicon Valley (2018) WEB-DL [H.264/1080p-LQ] (сезон 5, серии 1-8 из 8) Кубик в Кубе
Производство: США / 3 Arts Entertainment, Altschuler Krinsky Works, Judgemental Films Inc.
Жанр: комедия

Режиссер: Майк Джадж, Алек Берг, Джеми Бэббит
Актеры: Томас Миддлдитч, Джош Бренер, Мартин Старр, Кумэйл Нанджиани, Аманда Крю, Зак Вудс, Мэтт Росс, Джимми О. Янг, Сюзанн Крайер, Крис Диамантополос и др.

Описание:
Пятый сезон посвящен запуску идеи Ричарда Хендрикса. Новый децентрализованный Интернет, если все пойдет по плану, станет событием мирового масштаба. Однако понравится ли это таким гигантам, как Facebook и Google? А понравится ли она федералам? Ответ очевиден, поэтому команде Pied Piper придется быть во всеоружии.

https://www.imdb.com/title/tt2575988/?ref_=plg_rt_1
Возраст: 18+ (зрителям, достигшим 18 лет. запрещено для детей)

Продолжительность: ~00:30:00 серия
Качество видео: WEB-DL
Перевод: Двуголосый профессиональный (Кубик в Кубе)
Субтитры: английские

Внимание! Присутствует ненормативная лексика.

Видео: AVC/H.264, 1920x1080, ~7280 kbps
Аудио1: AAC, 2 ch, 135 kbps - русский, двуголосый закадровый
Аудио2: AC-3, 6 ch, 640 kbps - английский
Код:
General
Unique ID                   : 235702002867152329523714430523392593854 (0xB1528DF581CA8C9B0BA83F66806F0FBE)
Complete name               : F:\Кремниевая долина\Silicon.Valley.S05.WEB-DL.1080p.Rus.Eng.Subs\Silicon.Valley.S05E01.WEB-DL.1080p.Rus.Eng.Subs.mkv
Format                      : Matroska
Format version              : Version 4
File size                   : 1.79 GiB
Duration                    : 31 min 50 s
Overall bit rate mode       : Variable
Overall bit rate            : 8 060 kb/s
Encoded date                : UTC 2019-11-04 04:58:12
Writing application         : mkvmerge v27.0.0 ('Metropolis') 64-bit
Writing library             : libebml v1.3.6 + libmatroska v1.4.9

Video
ID                          : 1
Format                      : AVC
Format/Info                 : Advanced Video Codec
Format profile              : [email protected]
Format settings             : CABAC / 4 Ref Frames
Format settings, CABAC      : Yes
Format settings, Reference  : 4 frames
Codec ID                    : V_MPEG4/ISO/AVC
Duration                    : 31 min 50 s
Bit rate mode               : Variable
Bit rate                    : 7 282 kb/s
Maximum bit rate            : 15.0 Mb/s
Width                       : 1 920 pixels
Height                      : 1 080 pixels
Display aspect ratio        : 16:9
Frame rate mode             : Constant
Frame rate                  : 23.976 (24000/1001) FPS
Color space                 : YUV
Chroma subsampling          : 4:2:0
Bit depth                   : 8 bits
Scan type                   : Progressive
Bits/(Pixel*Frame)          : 0.146
Stream size                 : 1.62 GiB (90%)
Default                     : Yes
Forced                      : No
Color range                 : Limited
Color primaries             : BT.709
Transfer characteristics    : BT.709
Matrix coefficients         : BT.709

Audio #1
ID                          : 2
Format                      : AAC LC
Format/Info                 : Advanced Audio Codec Low Complexity
Codec ID                    : A_AAC-2
Duration                    : 31 min 50 s
Bit rate                    : 135 kb/s
Channel(s)                  : 2 channels
Channel layout              : L R
Sampling rate               : 48.0 kHz
Frame rate                  : 46.875 FPS (1024 SPF)
Compression mode            : Lossy
Delay relative to video     : 9 ms
Stream size                 : 30.8 MiB (2%)
Title                       : Кубик в кубе
Default                     : Yes
Forced                      : Yes

Audio #2
ID                          : 3
Format                      : E-AC-3
Format/Info                 : Enhanced AC-3
Commercial name             : Dolby Digital Plus
Codec ID                    : A_EAC3
Duration                    : 31 min 50 s
Bit rate mode               : Constant
Bit rate                    : 640 kb/s
Channel(s)                  : 6 channels
Channel layout              : L R C LFE Ls Rs
Sampling rate               : 48.0 kHz
Frame rate                  : 31.250 FPS (1536 SPF)
Compression mode            : Lossy
Delay relative to video     : 5 ms
Stream size                 : 146 MiB (8%)
Language                    : English
Service kind                : Complete Main
Default                     : No
Forced                      : No

Text #1
ID                          : 4
Format                      : UTF-8
Codec ID                    : S_TEXT/UTF8
Codec ID/Info               : UTF-8 Plain Text
Duration                    : 31 min 39 s
Bit rate                    : 103 b/s
Count of elements           : 645
Stream size                 : 24.0 KiB (0%)
Language                    : English
Default                     : No
Forced                      : No

Text #2
ID                          : 5
Format                      : UTF-8
Codec ID                    : S_TEXT/UTF8
Codec ID/Info               : UTF-8 Plain Text
Duration                    : 31 min 39 s
Bit rate                    : 108 b/s
Count of elements           : 663
Stream size                 : 25.1 KiB (0%)
Title                       : SDH
Language                    : English
Default                     : No
Forced                      : No

Menu
00:00:00.000                : en:TV Rating
00:00:03.629                : en:Previously On
00:01:43.629                : en:Studio Logo
00:01:49.629                : en:Pied Piper moves into their new office space
00:05:16.629                : en:Title Sequence
00:05:26.629                : en:Dinesh and Bertram can't agree on who to hire
00:07:39.629                : en:Richard attends Gavin's gala
00:10:21.629                : en:Pied Piper attempts to buy out another company
00:13:39.629                : en:Dinesh and Gilfoyle return home
00:14:37.629                : en:Gavin speaks to the new hires
00:16:59.629                : en:Jian tries to take control of the house
00:18:53.629                : en:Richard looses out on more employees
00:21:17.629                : en:Gavin looks at the Box pre-order numbers
00:23:05.629                : en:Sliceline has a huge problem
00:26:28.629                : en:Richard meets with Monica and Laurie
00:28:07.629                : en:Richard gives a speech to his new coders
00:30:03.629                : en:End Credits
00:31:13.629                : en:On the next episode

Скриншоты:


Все одноименные релизы в Клубе
Время раздачи: 09:00-18:00 (до появления первых 3-5 скачавших)

Download
Для скачивания .torrent файлов необходима регистрация
Сайт не распространяет и не хранит электронные версии произведений, а лишь предоставляет доступ к создаваемому пользователями каталогу ссылок на торрент-файлы, которые содержат только списки хеш-сумм

Помоги нашему сайту любой суммой!


Кошелёк Номер счёта
На баланс телефона: +79046733080
Qiwi (Киви): +79046733080
Банковская карта: 5599 0050 8222 4002
Яндекс деньги (Можно перевести с любой карты): 410011822421129
(Рубли) WebMoney WMP: P981956481128
(Доллары) WebMoney WMZ: Z030977025876



Закрыть окно

Страница 1 из 1

Ответить на тему

   Похожие торренты   Торрент