Регистрация ·  Логин: Пароль: Запомнить   · Забыли пароль?




Ответить на тему
Автор Сообщение

Модератор
Аватара пользователя

С нами: 7 лет 10 месяцев
Сообщения: 31611
Откуда: Гуанчжоу
Китай

Сообщение 16 окт 2021, 17:20 

[Цитировать]

Долгая дорога домой / The Long Road Home (2017) WEBRip (сезон 1, серии 1-8 из 8) IdeaFilm
Производство: США / Finngate Pictures, Phoenix Pictures
Жанр: драма, военный

Режиссер: Фил Абрахам, Микаэл Саломон
Актеры: Э.Дж. Бонилья, Франклин Сильверио, Джон Биверс, Джошуа Бреннан, Хорхе Диас, Дариус Хомайоун, Джозеф Лутман, Томас МакДонелл, Девонн Палмер, Чарли Пэрриш и др.

Описание:
В основу сюжета легла трагическая история, которая произошла с солдатами американской армии 4 апреля 2004 года в столице Ирака. На окраинах Багдада военные попали под огонь борцов за свободу Ирака, устроивших им засаду. Эти события в США принято называть "Черное воскресенье".

http://www.imdb.com/title/tt1210820/?ref_=plg_rt_1
Возраст: 16+ (зрителям, достигшим 16 лет)
Дата мировой премьеры: 5 ноября 2017

Продолжительность: ~00:45:00 серия
Качество видео: WEBRip
Перевод: Многоголосый закадровый, любительский (IdeaFilm)

Видео: AVC/H.264, 1280х720, (16:9), ~2644 kbps
Аудио 1: AC3, 6 ch, 384 kbps, CBR | русский, многоголосый закадровый
Аудио 2: AC3, 6 ch, 384 kbps, CBR | английский
Код:
Общее
Уникальный идентификатор                 : 216938715358488280853750601895840592025 (0xA334E07600BD3FB7A165C106E0843099)
Полное имя                               : J:\The Long Road Home\Dolgaya.Doroga.Domoii.S01_Ep01.mkv
Формат                                   : Matroska
Версия формата                           : Version 4 / Version 2
Размер файла                             : 1,09 Гбайт
Продолжительность                        : 45 м. 35 с.
Общий поток                              : 3413 Кбит/сек
Дата кодирования                         : UTC 2017-11-22 18:53:31
Программа кодирования                    : mkvmerge v18.0.0 ('Apricity') 64-bit
Библиотека кодирования                   : libebml v1.3.5 + libmatroska v1.4.8

Видео
Идентификатор                            : 1
Формат                                   : AVC
Формат/Информация                        : Advanced Video Codec
Профиль формата                          : [url=https://nnmclub.to/mailto:[email protected]][email protected][/url]
Параметр CABAC формата                   : Да
Параметр RefFrames формата               : 4 кадра
Идентификатор кодека                     : V_MPEG4/ISO/AVC
Продолжительность                        : 45 м. 35 с.
Битрейт                                  : 2644 Кбит/сек
Ширина                                   : 1280 пикселей
Высота                                   : 720 пикселей
Соотношение сторон                       : 16:9
Режим частоты кадров                     : Постоянный
Частота кадров                           : 23,976 кадра/сек
Цветовое пространство                    : YUV
Субдискретизация насыщенности            : 4:2:0
Битовая глубина                          : 8 бит
Тип развёртки                            : Прогрессивная
Бит/(Пиксели*Кадры)                      : 0.120
Размер потока                            : 862 Мбайт (77%)
Библиотека кодирования                   : x264 core 142 r2479 dd79a61
Настройки программы                      : cabac=1 / ref=3 / deblock=1:0:0 / analyse=0x3:0x113 / me=hex / subme=7 / psy=1 / psy_rd=1.00:0.00 / mixed_ref=1 / me_range=16 / chroma_me=1 / trellis=1 / 8x8dct=1 / cqm=0 / deadzone=21,11 / fast_pskip=1 / chroma_qp_offset=-2 / threads=12 / lookahead_threads=2 / sliced_threads=0 / nr=0 / decimate=1 / interlaced=0 / bluray_compat=0 / constrained_intra=0 / bframes=3 / b_pyramid=2 / b_adapt=1 / b_bias=0 / direct=1 / weightb=1 / open_gop=0 / weightp=2 / keyint=240 / keyint_min=24 / scenecut=40 / intra_refresh=0 / rc_lookahead=40 / rc=crf / mbtree=1 / crf=20.0 / qcomp=0.60 / qpmin=0 / qpmax=69 / qpstep=4 / vbv_maxrate=17500 / vbv_bufsize=17500 / crf_max=0.0 / nal_hrd=none / filler=0 / ip_ratio=1.40 / aq=1:1.00
Default                                  : Да
Forced                                   : Нет
Цветовой диапазон                        : Limited
Основные цвета                           : BT.709
Характеристики трансфера                 : BT.709
Коэффициенты матрицы                     : BT.709

Аудио #1
Идентификатор                            : 2
Формат                                   : AC-3
Формат/Информация                        : Audio Coding 3
Параметр Endianness формата              : Big
Идентификатор кодека                     : A_AC3
Продолжительность                        : 45 м. 35 с.
Вид битрейта                             : Постоянный
Битрейт                                  : 384 Кбит/сек
Каналы                                   : 6 каналов
Расположение каналов                     : Front: L C R, Side: L R, LFE
Частота                                  : 48,0 КГц
Частота кадров                           : 31,250 кадров/сек (1536 SPF)
Битовая глубина                          : 16 бит
Метод сжатия                             : С потерями
Задержка видео                           : -125 мс.
Размер потока                            : 125 Мбайт (11%)
Язык                                     : Russian
ServiceKind/String                       : Complete Main
Default                                  : Да
Forced                                   : Нет

Аудио #2
Идентификатор                            : 3
Формат                                   : AC-3
Формат/Информация                        : Audio Coding 3
Параметр Endianness формата              : Big
Идентификатор кодека                     : A_AC3
Продолжительность                        : 45 м. 35 с.
Вид битрейта                             : Постоянный
Битрейт                                  : 384 Кбит/сек
Каналы                                   : 6 каналов
Расположение каналов                     : Front: L C R, Side: L R, LFE
Частота                                  : 48,0 КГц
Частота кадров                           : 31,250 кадров/сек (1536 SPF)
Битовая глубина                          : 16 бит
Метод сжатия                             : С потерями
Размер потока                            : 125 Мбайт (11%)
Заголовок                                : Surround
Язык                                     : English
ServiceKind/String                       : Complete Main
Default                                  : Нет
Forced                                   : Нет

Скриншоты:


Все одноименные релизы в Клубе
Время раздачи: С 09:00 до 23:30 (до появления первых 3-5 скачавших)

Download
Для скачивания .torrent файлов необходима регистрация
Сайт не распространяет и не хранит электронные версии произведений, а лишь предоставляет доступ к создаваемому пользователями каталогу ссылок на торрент-файлы, которые содержат только списки хеш-сумм

Помоги нашему сайту любой суммой!


Кошелёк Номер счёта
На баланс телефона: +79046733080
Qiwi (Киви): +79046733080
Банковская карта: 5599 0050 8222 4002
Яндекс деньги (Можно перевести с любой карты): 410011822421129
(Рубли) WebMoney WMP: P981956481128
(Доллары) WebMoney WMZ: Z030977025876



Закрыть окно

Страница 1 из 1

Ответить на тему

   Похожие торренты   Торрент