Регистрация ·  Логин: Пароль: Запомнить   · Забыли пароль?




Ответить на тему
Автор Сообщение

Модератор видео
Аватара пользователя

С нами: 2 года 10 месяцев
Сообщения: 3105
Россия

Сообщение 03 окт 2021, 23:09 

[Цитировать]

Телохранитель жены киллера / Hitman's Wife's Bodyguard
«Третий не лишний»


Год выхода: 2021
Страна: США, Великобритания
Жанр: боевик, комедия
Продолжительность: 01:56:35
Перевод: Профессиональный (полное дублирование)
Субтитры: нет

Режиссер:
Патрик Хьюз / Patrick Hughes

В ролях:
Райан Рейнольдс, Сэмюэл Л. Джексон, Сальма Хайек, Морган Фриман, Фрэнк Грилло, Антонио Бандерас, Том Хоппер, Ричард Э. Грант, Кэролайн Гудолл, Габриэлла Райт, Джулио Мария Беррути, Блейк Ритсон, Кейт Николс, Томи Мэй, Драган Мичанович

О фильме:
Майкл Брайс проходит не лучший период жизни и никак не может пережить тот факт, что его лишили лицензии телохранителя. Психотерапевт советует ему отправиться на Капри, чтобы найти внутреннего себя, но духовное исцеление летит ко всем чертям, когда на курорте его настигает Соня Кинкейд — жена киллера Дариуса и весьма буйная дамочка. Она требует, чтобы Брайс помог ей высвободить муженька из заложников, и, не дав опомниться, втягивает бывшего телохранителя в безумную авантюру. Тем временем миллиардер Аристотель Пападополус, недовольный отношением ЕС к Греции, заполучает хакерскую технологию и готовится уничтожить Европу.

Релиз групп | | IMDB | КиноПоиск | Сэмпл |

Качество: WEB-DLRip
Формат: AVI
Видео: 720x304 (2.37:1), 23.976 fps, XviD build 69 ~1404 kbps avg, 0.27 bit/pixel
Аудио: 48 kHz, AC3 Dolby Digital, 3/2 (L,C,R,l,r) + LFE ch, ~384 kbps avg - Thx KinoPub



Код:
Код:
Общее
Полное имя                               : G:\Hitman's_Wife's_Bodyguard_2021_WEB-DLRip_by_Dalemake.avi
Формат                                   : AVI
Формат/Информация                        : Audio Video Interleave
Размер файла                             : 1,46 Гбайт
Продолжительность                        : 1 ч. 56 м.
Общий поток                              : 1798 Кбит/сек
Программа кодирования                    : VirtualDubMod 1.5.10.3 | www.virtualdub-fr.org || (build 2550/release)
Библиотека кодирования                   : VirtualDubMod build 2550/release
Видео
Идентификатор                            : 0
Формат                                   : MPEG-4 Visual
Профиль формата                          : Advanced [email protected]
Настройки формата                        : BVOP1 / Custom Matrix
Параметр BVOP формата                    : 1
Параметр QPel формата                    : Нет
Параметр GMC формата                     : Без точки перехода
Параметр матрицы формата                 : Выборочная
Идентификатор кодека                     : XVID
Идентификатор кодека/Подсказка           : XviD
Продолжительность                        : 1 ч. 56 м.
Битрейт                                  : 1404 Кбит/сек
Ширина                                   : 720 пикселей
Высота                                   : 304 пикселя
Соотношение сторон                       : 2,35:1
Частота кадров                           : 23,976 (24000/1001) кадра/сек
Цветовое пространство                    : YUV
Субдискретизация насыщенности            : 4:2:0
Битовая глубина                          : 8 бит
Тип развёртки                            : Прогрессивная
Метод сжатия                             : С потерями
Бит/(Пиксели*Кадры)                      : 0.268
Размер потока                            : 1,14 Гбайт (78%)
Библиотека кодирования                   : XviD 69
Аудио
Идентификатор                            : 1
Формат                                   : AC-3
Формат/Информация                        : Audio Coding 3
Коммерческое название                    : Dolby Digital
Идентификатор кодека                     : 2000
Продолжительность                        : 1 ч. 56 м.
Вид битрейта                             : Постоянный
Битрейт                                  : 384 Кбит/сек
Каналы                                   : 6 каналов
ChannelLayout                            : L R C LFE Ls Rs
Частота                                  : 48,0 КГц
Частота кадров                           : 31,250 кадров/сек (1536 SPF)
Битовая глубина                          : 16 бит
Метод сжатия                             : С потерями
Размер потока                            : 320 Мбайт (21%)
Выравнивание                             : Разделение по промежуткам
Продолжительность промежутка             : 42  мс. (1,00 видеокадр)
Время предзагрузки промежутка            : 500  мс.
ServiceKind/String                       : Complete Main

Download
Для скачивания .torrent файлов необходима регистрация
Сайт не распространяет и не хранит электронные версии произведений, а лишь предоставляет доступ к создаваемому пользователями каталогу ссылок на торрент-файлы, которые содержат только списки хеш-сумм

Помоги нашему сайту любой суммой!


Кошелёк Номер счёта
На баланс телефона: +79046733080
Qiwi (Киви): +79046733080
Банковская карта: 5599 0050 8222 4002
Яндекс деньги (Можно перевести с любой карты): 410011822421129
(Рубли) WebMoney WMP: P981956481128
(Доллары) WebMoney WMZ: Z030977025876



Закрыть окно

Страница 1 из 1

Ответить на тему

   Похожие торренты   Торрент