Регистрация ·  Логин: Пароль: Запомнить   · Забыли пароль?




Ответить на тему
Автор Сообщение

Модератор
Аватара пользователя

С нами: 7 лет 10 месяцев
Сообщения: 5537
Россия

Сообщение 03 ноя 2020, 13:55 

[Цитировать]


Жанр: Thrash Metal
Страна: Germany
Годы выпуска альбомов: 1986-2017
Страна-производитель: Germany, Japan, E.U., Russia
Издатель (лейбл): Noise Records, Sanctuary Records Group, AFM Records, Nuclear Blast etc...
Аудио кодек: FLAC (*.flac)
Тип рипа: image+.cue
Битрейт аудио: lossless
Продолжительность: 42:08:37
Источник (релизер): metallihead, Ginger Devil, subrr, Джонни, deminbek, ilijan, ungern666, glloomerxe, metalleonid и релизеры MeTaLMaDNeSS TeaM
Наличие сканов в содержимом раздачи: да
Релиз от группы:
STUDIO ALBUMS
Трэклист:
1. Zombie Attack
2. Acid Death
3. Mercenary
4. Maniac Forces
5. Alcohol
6. (Empty) Tankard
7. Thrash 'Till Death
8. Chains
9. Poison
10. Screamin' Victims
Код:
Exact Audio Copy V1.0 beta 3 from 29. August 2011
EAC extraction logfile from 7. February 2013, 16:07
Tankard / Zombie Attack [Noise, N 0046-3, W.Germany]
Used drive  : PIONEER DVD-RW  DVR-220L   Adapter: 3  ID: 0
Read mode               : Secure
Utilize accurate stream : Yes
Defeat audio cache      : Yes
Make use of C2 pointers : No
Read offset correction                      : 6
Overread into Lead-In and Lead-Out          : No
Fill up missing offset samples with silence : Yes
Delete leading and trailing silent blocks   : No
Null samples used in CRC calculations       : Yes
Used interface                              : Installed external ASPI interface
Used output format              : User Defined Encoder
Selected bitrate                : 1024 kBit/s
Quality                         : High
Add ID3 tag                     : No
Command line compressor         : C:\Program Files\Exact Audio Copy\FLAC\FLAC.EXE
Additional command line options : -V -8 -T "Date=%year%" -T "Genre=%genre%" %source%
TOC of the extracted CD
     Track |   Start  |  Length  | Start sector | End sector
    ---------------------------------------------------------
        1  |  0:00.00 |  3:51.10 |         0    |    17334
        2  |  3:51.10 |  4:16.42 |     17335    |    36576
        3  |  8:07.52 |  3:26.73 |     36577    |    52099
        4  | 11:34.50 |  5:08.50 |     52100    |    75249
        5  | 16:43.25 |  2:09.32 |     75250    |    84956
        6  | 18:52.57 |  4:45.20 |     84957    |   106351
        7  | 23:38.02 |  2:32.38 |    106352    |   117789
        8  | 26:10.40 |  3:38.25 |    117790    |   134164
        9  | 29:48.65 |  3:59.42 |    134165    |   152131
       10  | 33:48.32 |  3:02.45 |    152132    |   165826
Range status and errors
Selected range
     Filename E:\CDRip by Deminbek\Tankard - Zombie Attack [Noise, N 0046-3, W.Germany].wav
     Peak level 100.0 %
     Extraction speed 6.5 X
     Range quality 100.0 %
     Test CRC 0F7D5E1C
     Copy CRC 0F7D5E1C
     Copy OK
No errors occurred
AccurateRip summary
Track  1  cannot be verified as accurate (confidence 5)  [12023B90], AccurateRip returned [CDBAA35F]  (AR v2)
Track  2  cannot be verified as accurate (confidence 6)  [CE6FB58F], AccurateRip returned [1B984E90]  (AR v2)
Track  3  cannot be verified as accurate (confidence 6)  [ADAEDA3E], AccurateRip returned [A448E59F]  (AR v2)
Track  4  cannot be verified as accurate (confidence 5)  [8572FB46], AccurateRip returned [BC5E07BA]  (AR v2)
Track  5  cannot be verified as accurate (confidence 6)  [99DAA7EA], AccurateRip returned [D6B3A3FC]  (AR v2)
Track  6  cannot be verified as accurate (confidence 5)  [A3988975], AccurateRip returned [3353089E]  (AR v2)
Track  7  cannot be verified as accurate (confidence 5)  [E259E157], AccurateRip returned [F21A2ECF]  (AR v2)
Track  8  cannot be verified as accurate (confidence 5)  [386E695A], AccurateRip returned [A6D3F9F0]  (AR v2)
Track  9  cannot be verified as accurate (confidence 6)  [C7439F19], AccurateRip returned [3C0DC54D]  (AR v2)
Track 10  cannot be verified as accurate (confidence 5)  [E256A442], AccurateRip returned [A394F13B]  (AR v2)
No tracks could be verified as accurate
You may have a different pressing from the one(s) in the database
End of status report
---- CUETools DB Plugin V2.1.3
[CTDB TOCID: mmFzpbqPm6NcPHC4gJ.E.BcAi38-] found, Submit result: mmFzpbqPm6NcPHC4gJ.E.BcAi38- has been confirmed
[5e8bef35] (9/9) Accurately ripped
==== Log checksum 0B449A0E3728A1917DCC430ED4D21C149E618E53FEDB71F65F8BC66F7FA48CEF ====
Трэклист:
1. Intro
2. Total Addiction
3. Tantrum
4. Don't Panic
5. Puke
6. For A Thousand Beers
7. Chemical Invasion
8. Farewell To A Slut
9. Traitor
10. Alcohol
11. Outro
Код:
Exact Audio Copy V1.0 beta 3 from 29. August 2011
EAC extraction logfile from 7. February 2013, 13:24
Tankard / Chemical Invasion [Noise, N 0097-2, 85-4472 SPV-GmbH, Germany]
Used drive  : PIONEER DVD-RW  DVR-220L   Adapter: 3  ID: 0
Read mode               : Secure
Utilize accurate stream : Yes
Defeat audio cache      : Yes
Make use of C2 pointers : No
Read offset correction                      : 6
Overread into Lead-In and Lead-Out          : No
Fill up missing offset samples with silence : Yes
Delete leading and trailing silent blocks   : No
Null samples used in CRC calculations       : Yes
Used interface                              : Installed external ASPI interface
Used output format              : User Defined Encoder
Selected bitrate                : 1024 kBit/s
Quality                         : High
Add ID3 tag                     : No
Command line compressor         : C:\Program Files\Exact Audio Copy\FLAC\FLAC.EXE
Additional command line options : -V -8 -T "Date=%year%" -T "Genre=%genre%" %source%
TOC of the extracted CD
     Track |   Start  |  Length  | Start sector | End sector
    ---------------------------------------------------------
        1  |  0:00.00 |  0:17.32 |         0    |     1306
        2  |  0:17.32 |  3:26.18 |      1307    |    16774
        3  |  3:43.50 |  3:15.20 |     16775    |    31419
        4  |  6:58.70 |  4:24.22 |     31420    |    51241
        5  | 11:23.17 |  0:57.60 |     51242    |    55576
        6  | 12:21.02 |  7:23.60 |     55577    |    88861
        7  | 19:44.62 |  5:27.10 |     88862    |   113396
        8  | 25:11.72 |  4:09.50 |    113397    |   132121
        9  | 29:21.47 |  7:55.33 |    132122    |   167779
       10  | 37:17.05 |  2:03.70 |    167780    |   177074
       11  | 39:21.00 |  0:07.10 |    177075    |   177609
Range status and errors
Selected range
     Filename E:\CDRip by Deminbek\Tankard - Chemical Invasion [Noise, N 0097-2, 85-4472 SPV-GmbH, Germany].wav
     Peak level 99.9 %
     Extraction speed 3.9 X
     Range quality 99.9 %
     Test CRC 94C5F1F1
     Copy CRC 94C5F1F1
     Copy OK
No errors occurred
AccurateRip summary
Track  1  accurately ripped (confidence 4)  [537D0362]  (AR v1)
Track  2  accurately ripped (confidence 4)  [3F682C73]  (AR v1)
Track  3  accurately ripped (confidence 4)  [B8AE3C5E]  (AR v1)
Track  4  accurately ripped (confidence 4)  [5A9A9F07]  (AR v1)
Track  5  accurately ripped (confidence 5)  [8A88A1F2]  (AR v1)
Track  6  accurately ripped (confidence 4)  [BFD65E39]  (AR v1)
Track  7  accurately ripped (confidence 4)  [15228388]  (AR v1)
Track  8  accurately ripped (confidence 4)  [938B3144]  (AR v1)
Track  9  accurately ripped (confidence 4)  [467413D9]  (AR v1)
Track 10  accurately ripped (confidence 5)  [F5E8210A]  (AR v1)
Track 11  accurately ripped (confidence 5)  [8CED6E8B]  (AR v1)
All tracks accurately ripped
End of status report
---- CUETools DB Plugin V2.1.3
[CTDB TOCID: mVtflfv5F8_UDzuN8P1eYZDZzZE-] found, Submit result: already submitted
[e80e67b5] (2/2) Accurately ripped
==== Log checksum 95AD180396FC623E1180C0787FDDE3A5268A67C034AC01B91A2212C6B10BBCD6 ====
Трэклист:
1. Intro
2. Commandments
3. Shit-Faced
4. TV Hero
5. F.U.N.
6. Try Again
7. The Morning After
8. Desperation
9. Feed The Lohocla
10. Help Yourself
11. Mon Cheri
12. Outro
Код:
Exact Audio Copy V1.0 beta 3 from 29. August 2011
EAC extraction logfile from 7. February 2013, 17:18
Tankard / The Morning After [Noise, N 0123-3, W.Germany]
Used drive  : PIONEER DVD-RW  DVR-220L   Adapter: 3  ID: 0
Read mode               : Secure
Utilize accurate stream : Yes
Defeat audio cache      : Yes
Make use of C2 pointers : No
Read offset correction                      : 6
Overread into Lead-In and Lead-Out          : No
Fill up missing offset samples with silence : Yes
Delete leading and trailing silent blocks   : No
Null samples used in CRC calculations       : Yes
Used interface                              : Installed external ASPI interface
Used output format              : User Defined Encoder
Selected bitrate                : 1024 kBit/s
Quality                         : High
Add ID3 tag                     : No
Command line compressor         : C:\Program Files\Exact Audio Copy\FLAC\FLAC.EXE
Additional command line options : -V -8 -T "Date=%year%" -T "Genre=%genre%" %source%
TOC of the extracted CD
     Track |   Start  |  Length  | Start sector | End sector
    ---------------------------------------------------------
        1  |  0:00.00 |  0:28.50 |         0    |     2149
        2  |  0:28.50 |  2:51.60 |      2150    |    15034
        3  |  3:20.35 |  4:02.67 |     15035    |    33251
        4  |  7:23.27 |  6:01.18 |     33252    |    60344
        5  | 13:24.45 |  3:12.12 |     60345    |    74756
        6  | 16:36.57 |  3:41.30 |     74757    |    91361
        7  | 20:18.12 |  4:26.58 |     91362    |   111369
        8  | 24:44.70 |  4:35.22 |    111370    |   132016
        9  | 29:20.17 |  3:59.33 |    132017    |   149974
       10  | 33:19.50 |  5:03.12 |    149975    |   172711
       11  | 38:22.62 |  0:47.48 |    172712    |   176284
       12  | 39:10.35 |  0:29.37 |    176285    |   178496
Range status and errors
Selected range
     Filename E:\CDRip by Deminbek\Tankard - The Morning After [Noise, N 0123-3, W.Germany].wav
     Peak level 100.0 %
     Extraction speed 4.0 X
     Range quality 100.0 %
     Test CRC DDCCD0AA
     Copy CRC DDCCD0AA
     Copy OK
No errors occurred
AccurateRip summary
Track  1  accurately ripped (confidence 5)  [C843603D]  (AR v1)
Track  2  accurately ripped (confidence 5)  [B3739289]  (AR v1)
Track  3  accurately ripped (confidence 5)  [DEC2B50E]  (AR v1)
Track  4  accurately ripped (confidence 5)  [159FA6BD]  (AR v1)
Track  5  accurately ripped (confidence 5)  [5343AED9]  (AR v1)
Track  6  accurately ripped (confidence 5)  [731E3E4D]  (AR v1)
Track  7  accurately ripped (confidence 5)  [4015BCBD]  (AR v1)
Track  8  accurately ripped (confidence 5)  [0D633076]  (AR v1)
Track  9  accurately ripped (confidence 5)  [ECA20BA1]  (AR v1)
Track 10  accurately ripped (confidence 5)  [8E501072]  (AR v1)
Track 11  accurately ripped (confidence 5)  [FB9995AA]  (AR v1)
Track 12  accurately ripped (confidence 5)  [3481DA06]  (AR v1)
All tracks accurately ripped
End of status report
---- CUETools DB Plugin V2.1.3
[CTDB TOCID: EG8V3txcQ59VgcsJPjAumxlM7HQ-] found, Submit result: EG8V3txcQ59VgcsJPjAumxlM7HQ- has been confirmed
[00d5a62c] (2/2) Accurately ripped
==== Log checksum C9CFC08B4345BF57411726F40301B834441900FE2E2247D4C0CCDD12E869B3EF ====
Трэклист:
1. Alien
2. 666 Packs
3. Live To Dive
4. Remedy
5. (Empty) Tankard
Код:
Exact Audio Copy V1.0 beta 3 from 29. August 2011
EAC extraction logfile from 7. February 2013, 17:29
Tankard / Alien [Noise, N 0131-3,Germany]
Used drive  : PIONEER DVD-RW  DVR-220L   Adapter: 3  ID: 0
Read mode               : Secure
Utilize accurate stream : Yes
Defeat audio cache      : Yes
Make use of C2 pointers : No
Read offset correction                      : 6
Overread into Lead-In and Lead-Out          : No
Fill up missing offset samples with silence : Yes
Delete leading and trailing silent blocks   : No
Null samples used in CRC calculations       : Yes
Used interface                              : Installed external ASPI interface
Used output format              : User Defined Encoder
Selected bitrate                : 1024 kBit/s
Quality                         : High
Add ID3 tag                     : No
Command line compressor         : C:\Program Files\Exact Audio Copy\FLAC\FLAC.EXE
Additional command line options : -V -8 -T "Date=%year%" -T "Genre=%genre%" %source%
TOC of the extracted CD
     Track |   Start  |  Length  | Start sector | End sector
    ---------------------------------------------------------
        1  |  0:00.00 |  3:09.35 |         0    |    14209
        2  |  3:09.35 |  4:52.45 |     14210    |    36154
        3  |  8:02.05 |  3:09.42 |     36155    |    50371
        4  | 11:11.47 |  2:49.23 |     50372    |    63069
        5  | 14:00.70 |  4:42.57 |     63070    |    84276
Range status and errors
Selected range
     Filename E:\CDRip by Deminbek\Tankard - Alien [Noise, N 0131-3,Germany].wav
     Peak level 100.0 %
     Extraction speed 5.6 X
     Range quality 100.0 %
     Test CRC 55E50454
     Copy CRC 55E50454
     Copy OK
No errors occurred
AccurateRip summary
Track  1  accurately ripped (confidence 2)  [67F5E8D6]  (AR v1)
Track  2  accurately ripped (confidence 2)  [0A4A0CE1]  (AR v1)
Track  3  accurately ripped (confidence 2)  [4973D00A]  (AR v1)
Track  4  accurately ripped (confidence 2)  [5E37F549]  (AR v1)
Track  5  accurately ripped (confidence 2)  [EA1F8B12]  (AR v1)
All tracks accurately ripped
End of status report
---- CUETools DB Plugin V2.1.3
[CTDB TOCID: B5yx1gns_RpQlybHyBq_oMJfXXA-] disk not present in database, Submit result: B5yx1gns_RpQlybHyBq_oMJfXXA- has been uploaded
==== Log checksum 28467874A87455196293789DBD173E003725DA0A9620FAEC805BBAD5B0096E8A ====
Трэклист:
1. Open All Night
2. We Are Us
3. Dancing On Our Grave
4. Mechanical Man
5. Beermuda
6. The Meaning Of Life
7. Space Beer
8. Always Them
9. Wheel Of Rebirth
10. Barfly
11. Wonderful Life (Bonus Track)
Код:
Exact Audio Copy V1.0 beta 3 from 29. August 2011
EAC extraction logfile from 7. February 2013, 18:09
Tankard / The Meaning Of Life [Noise, N 0156-2, W.Germany]
Used drive  : PIONEER DVD-RW  DVR-220L   Adapter: 3  ID: 0
Read mode               : Secure
Utilize accurate stream : Yes
Defeat audio cache      : Yes
Make use of C2 pointers : No
Read offset correction                      : 6
Overread into Lead-In and Lead-Out          : No
Fill up missing offset samples with silence : Yes
Delete leading and trailing silent blocks   : No
Null samples used in CRC calculations       : Yes
Used interface                              : Installed external ASPI interface
Used output format              : User Defined Encoder
Selected bitrate                : 1024 kBit/s
Quality                         : High
Add ID3 tag                     : No
Command line compressor         : C:\Program Files\Exact Audio Copy\FLAC\FLAC.EXE
Additional command line options : -V -8 -T "Date=%year%" -T "Genre=%genre%" %source%
TOC of the extracted CD
     Track |   Start  |  Length  | Start sector | End sector
    ---------------------------------------------------------
        1  |  0:00.00 |  5:44.00 |         0    |    25799
        2  |  5:44.00 |  4:41.02 |     25800    |    46876
        3  | 10:25.02 |  3:44.53 |     46877    |    63729
        4  | 14:09.55 |  6:03.55 |     63730    |    91009
        5  | 20:13.35 |  4:48.65 |     91010    |   112674
        6  | 25:02.25 |  5:40.62 |    112675    |   138236
        7  | 30:43.12 |  4:32.63 |    138237    |   158699
        8  | 35:16.00 |  4:02.70 |    158700    |   176919
        9  | 39:18.70 |  6:14.72 |    176920    |   205041
       10  | 45:33.67 |  4:15.03 |    205042    |   224169
       11  | 49:48.70 |  1:46.32 |    224170    |   232151
Range status and errors
Selected range
     Filename E:\CDRip by Deminbek\Tankard - The Meaning Of Life [Noise, N 0156-2, W.Germany].wav
     Peak level 100.0 %
     Extraction speed 7.0 X
     Range quality 100.0 %
     Test CRC A60A32B3
     Copy CRC A60A32B3
     Copy OK
No errors occurred
AccurateRip summary
Track  1  accurately ripped (confidence 7)  [07880F5C]  (AR v1)
Track  2  accurately ripped (confidence 7)  [33C7A686]  (AR v1)
Track  3  accurately ripped (confidence 7)  [3B52ECA5]  (AR v1)
Track  4  accurately ripped (confidence 7)  [6B64BD41]  (AR v1)
Track  5  accurately ripped (confidence 8)  [AE7BECEA]  (AR v1)
Track  6  accurately ripped (confidence 8)  [7A74B604]  (AR v1)
Track  7  accurately ripped (confidence 7)  [AD14E74F]  (AR v1)
Track  8  accurately ripped (confidence 8)  [178BA251]  (AR v1)
Track  9  accurately ripped (confidence 7)  [A01569C5]  (AR v1)
Track 10  accurately ripped (confidence 8)  [2394C58F]  (AR v1)
Track 11  accurately ripped (confidence 8)  [83C2AA98]  (AR v1)
All tracks accurately ripped
End of status report
---- CUETools DB Plugin V2.1.3
[CTDB TOCID: t4KOJWFtCdatyyn1nl5ZK7_2PF8-] found, Submit result: already submitted
[b70b62e7] (16/16) Accurately ripped
==== Log checksum A33C56BA73C19B15FD3E4C4B5D0AD808621D5A7FE51054C35F13DBA95F8AB119 ====
Трэклист:
1. Open All Night
2. We Are Us
3. Dancing On Our Grave
4. Mechanical Man
5. Beermuda
6. The Meaning Of Life
7. Space Beer
8. Always Them
9. Wheel Of Rebirth
10. Barfly
11. Wonderful Life
12. The Morning After (Live) (Bonus track)
13. Commandments (Live) (Bonus track)
14. Alien (Live) (Bonus track)
15. Open All Night (Live) (Bonus track)
16. Maniac Forces (Live) (Bonus track)
Код:
EAC extraction logfile from 16. October 2008, 22:45 for CD
tankard / the meaning of life (remastered)
Used drive  : HL-DT-STDVD-ROM GDR8163B   Adapter: 0  ID: 1
Read mode   : Secure with NO C2, accurate stream, disable cache
Read offset correction : 102
Overread into Lead-In and Lead-Out : No
Used output format : C:\Archivos de programa\Exact Audio Copy\MAC.EXE   (Monkey's Audio Lossless Encoder)
                     High Lossless Compression
Other options      :
    Fill up missing offset samples with silence : Yes
    Delete leading and trailing silent blocks : No
    Native Win32 interface for Win NT & 2000
Range status and errors
Selected range
   Filename F:\MeTaLMaDNeSS.TeaM\tankard - [2005] the meaning of life (remastered)\CDImage.wav
   Peak level 100.0 %
   Range quality 100.0 %
   CRC CFEE3D8F
   Copy OK
No errors occured
End of status report
Трэклист:
1. Jurisdiction
2. Broken Image
3. Mindwild
4. Ugly Beauty
5. Centerfold
6. Behind The Back
7. Stone Cold Sober
8. Blood, Guts & Rock 'n' Roll
9. Lost And Found (Tantrum Part 2)
10. Sleeping With The Past
11. Freibier
12. Of Strange Talking People Under Arabian Skies
Код:
Exact Audio Copy V1.0 beta 3 from 29. August 2011
EAC extraction logfile from 7. February 2013, 18:34
Tankard / Stone Cold Sober [Noise, N 0190-2, Germany]
Used drive  : PIONEER DVD-RW  DVR-220L   Adapter: 3  ID: 0
Read mode               : Secure
Utilize accurate stream : Yes
Defeat audio cache      : Yes
Make use of C2 pointers : No
Read offset correction                      : 6
Overread into Lead-In and Lead-Out          : No
Fill up missing offset samples with silence : Yes
Delete leading and trailing silent blocks   : No
Null samples used in CRC calculations       : Yes
Used interface                              : Installed external ASPI interface
Used output format              : User Defined Encoder
Selected bitrate                : 1024 kBit/s
Quality                         : High
Add ID3 tag                     : No
Command line compressor         : C:\Program Files\Exact Audio Copy\FLAC\FLAC.EXE
Additional command line options : -V -8 -T "Date=%year%" -T "Genre=%genre%" %source%
TOC of the extracted CD
     Track |   Start  |  Length  | Start sector | End sector
    ---------------------------------------------------------
        1  |  0:00.00 |  5:41.25 |         0    |    25599
        2  |  5:41.25 |  5:30.35 |     25600    |    50384
        3  | 11:11.60 |  4:58.65 |     50385    |    72799
        4  | 16:10.50 |  5:08.25 |     72800    |    95924
        5  | 21:19.00 |  3:23.62 |     95925    |   111211
        6  | 24:42.62 |  4:39.15 |    111212    |   132151
        7  | 29:22.02 |  5:53.65 |    132152    |   158691
        8  | 35:15.67 |  5:32.70 |    158692    |   183661
        9  | 40:48.62 |  5:29.15 |    183662    |   208351
       10  | 46:18.02 |  4:15.33 |    208352    |   227509
       11  | 50:33.35 |  3:28.47 |    227510    |   243156
       12  | 54:02.07 |  7:41.63 |    243157    |   277794
Range status and errors
Selected range
     Filename E:\CDRip by Deminbek\Tankard - Stone Cold Sober [Noise, N 0190-2, Germany].wav
     Peak level 100.0 %
     Extraction speed 8.1 X
     Range quality 100.0 %
     Test CRC 8E245DD7
     Copy CRC 8E245DD7
     Copy OK
No errors occurred
AccurateRip summary
Track  1  accurately ripped (confidence 7)  [9DF870A5]  (AR v1)
Track  2  accurately ripped (confidence 8)  [53B0824A]  (AR v1)
Track  3  accurately ripped (confidence 8)  [7D178344]  (AR v1)
Track  4  accurately ripped (confidence 8)  [809E93DE]  (AR v1)
Track  5  accurately ripped (confidence 7)  [994933CC]  (AR v1)
Track  6  accurately ripped (confidence 8)  [176C4CD5]  (AR v1)
Track  7  accurately ripped (confidence 8)  [36BAD84C]  (AR v1)
Track  8  accurately ripped (confidence 8)  [790448A7]  (AR v1)
Track  9  accurately ripped (confidence 8)  [4590895E]  (AR v1)
Track 10  accurately ripped (confidence 8)  [D781F2F0]  (AR v1)
Track 11  accurately ripped (confidence 6)  [968C4E50]  (AR v1)
Track 12  accurately ripped (confidence 6)  [7DB87415]  (AR v1)
All tracks accurately ripped
End of status report
---- CUETools DB Plugin V2.1.3
[CTDB TOCID: wunqSs0Prk0Jnd4wgkhO4ey_QcQ-] found, Submit result: wunqSs0Prk0Jnd4wgkhO4ey_QcQ- has been confirmed
[6ede9b39] (15/15) Accurately ripped
==== Log checksum A196B5C7EF2423E48320D57099AA63095370280D0252CDC72CB042B1AA5032F9 ====
Трэклист:
1. Jurisdiction
2. Broken Image
3. Mindwild
4. Ugly Beauty
5. Centerfold
6. Behind The Back
7. Stone Cold Sober
8. Blood, Guts & Rock 'n' Roll
9. Lost And Found (Tantrum Part 2)
10. Sleeping With The Past
11. Freibier
12. Of Strange Talking People Under Arabian Skies
Код:
Exact Audio Copy V1.0 beta 3 from 29. August 2011
EAC extraction logfile from 7. February 2013, 19:34
Tankard / Stone Cold Sober [VICP-5185, Japan]
Used drive  : PIONEER DVD-RW  DVR-220L   Adapter: 3  ID: 0
Read mode               : Secure
Utilize accurate stream : Yes
Defeat audio cache      : Yes
Make use of C2 pointers : No
Read offset correction                      : 6
Overread into Lead-In and Lead-Out          : No
Fill up missing offset samples with silence : Yes
Delete leading and trailing silent blocks   : No
Null samples used in CRC calculations       : Yes
Used interface                              : Installed external ASPI interface
Used output format              : User Defined Encoder
Selected bitrate                : 1024 kBit/s
Quality                         : High
Add ID3 tag                     : No
Command line compressor         : C:\Program Files\Exact Audio Copy\FLAC\FLAC.EXE
Additional command line options : -V -8 -T "Date=%year%" -T "Genre=%genre%" %source%
TOC of the extracted CD
     Track |   Start  |  Length  | Start sector | End sector
    ---------------------------------------------------------
        1  |  0:00.37 |  5:41.25 |        37    |    25636
        2  |  5:41.62 |  5:30.60 |     25637    |    50446
        3  | 11:12.47 |  4:58.38 |     50447    |    72834
        4  | 16:11.10 |  5:08.27 |     72835    |    95961
        5  | 21:19.37 |  3:23.58 |     95962    |   111244
        6  | 24:43.20 |  4:39.35 |    111245    |   132204
        7  | 29:22.55 |  5:53.60 |    132205    |   158739
        8  | 35:16.40 |  5:32.62 |    158740    |   183701
        9  | 40:49.27 |  5:29.35 |    183702    |   208411
       10  | 46:18.62 |  4:15.33 |    208412    |   227569
       11  | 50:34.20 |  3:28.22 |    227570    |   243191
       12  | 54:02.42 |  7:43.70 |    243192    |   277986
Range status and errors
Selected range
     Filename E:\CDRip by Deminbek\Tankard - Stone Cold Sober [VICP-5185, Japan].wav
     Peak level 100.0 %
     Extraction speed 7.3 X
     Range quality 100.0 %
     Test CRC E141C973
     Copy CRC E141C973
     Copy OK
No errors occurred
AccurateRip summary
Track  1  accurately ripped (confidence 1)  [96E77EA2]  (AR v1)
Track  2  accurately ripped (confidence 1)  [914FCC07]  (AR v1)
Track  3  accurately ripped (confidence 1)  [96DB7C15]  (AR v1)
Track  4  accurately ripped (confidence 1)  [E423DEE9]  (AR v1)
Track  5  accurately ripped (confidence 1)  [BC1D6FE6]  (AR v1)
Track  6  accurately ripped (confidence 1)  [95FB3BC4]  (AR v1)
Track  7  accurately ripped (confidence 1)  [1E705D01]  (AR v1)
Track  8  accurately ripped (confidence 1)  [805CEC99]  (AR v1)
Track  9  accurately ripped (confidence 1)  [EDC2FFDB]  (AR v1)
Track 10  accurately ripped (confidence 1)  [EB0C3897]  (AR v1)
Track 11  accurately ripped (confidence 1)  [B37DC5B7]  (AR v1)
Track 12  accurately ripped (confidence 1)  [7CCEAE4E]  (AR v1)
All tracks accurately ripped
End of status report
---- CUETools DB Plugin V2.1.3
[CTDB TOCID: Ps0q5GM0uWf3QG_WjVhER7FqOzU-] disk not present in database, Submit result: discs with pregaps not supported in this protocol version
==== Log checksum 1F86D793ACD2312FEC93C0855E8E87883BD24ED11274B51C0734E71E06CACE9E ====
Трэклист:
1. Jurisdiction
2. Broken Image
3. Mindwild
4. Ugly Beauty
5. Centerfold
6. Behind The Back
7. Stone Cold Sober
8. Blood, Guts & Rock 'n' Roll
9. Lost And Found (Tantrum Part 2)
10. Sleeping With The Past
11. Freibier
12. Of Strange Talking People Under Arabian Skies
13. Outro
14. Don't Panic (Live) (Bonus track)
15. 666 Packs (Live) (Bonus track)
16. Shit-faced (Live) (Bonus track)
Код:
Exact Audio Copy V1.0 beta 3 from 29. August 2011
EAC extraction logfile from 7. February 2013, 19:08
Tankard / Stone Cold Sober [2005 Noise/Sanctuary, N04022, UK]
Used drive  : PIONEER DVD-RW  DVR-220L   Adapter: 3  ID: 0
Read mode               : Secure
Utilize accurate stream : Yes
Defeat audio cache      : Yes
Make use of C2 pointers : No
Read offset correction                      : 6
Overread into Lead-In and Lead-Out          : No
Fill up missing offset samples with silence : Yes
Delete leading and trailing silent blocks   : No
Null samples used in CRC calculations       : Yes
Used interface                              : Installed external ASPI interface
Used output format              : User Defined Encoder
Selected bitrate                : 1024 kBit/s
Quality                         : High
Add ID3 tag                     : No
Command line compressor         : C:\Program Files\Exact Audio Copy\FLAC\FLAC.EXE
Additional command line options : -V -8 -T "Date=%year%" -T "Genre=%genre%" %source%
TOC of the extracted CD
     Track |   Start  |  Length  | Start sector | End sector
    ---------------------------------------------------------
        1  |  0:00.00 |  5:40.31 |         0    |    25530
        2  |  5:40.31 |  5:30.60 |     25531    |    50340
        3  | 11:11.16 |  4:58.37 |     50341    |    72727
        4  | 16:09.53 |  5:08.28 |     72728    |    95855
        5  | 21:18.06 |  3:23.58 |     95856    |   111138
        6  | 24:41.64 |  4:39.35 |    111139    |   132098
        7  | 29:21.24 |  5:53.60 |    132099    |   158633
        8  | 35:15.09 |  5:32.62 |    158634    |   183595
        9  | 40:47.71 |  5:29.35 |    183596    |   208305
       10  | 46:17.31 |  4:15.33 |    208306    |   227463
       11  | 50:32.64 |  3:28.21 |    227464    |   243084
       12  | 54:01.10 |  6:54.17 |    243085    |   274151
       13  | 60:55.27 |  0:24.19 |    274152    |   275970
       14  | 61:19.46 |  5:00.70 |    275971    |   298540
       15  | 66:20.41 |  5:03.59 |    298541    |   321324
       16  | 71:24.25 |  4:23.41 |    321325    |   341090
Range status and errors
Selected range
     Filename E:\CDRip by Deminbek\Tankard - Stone Cold Sober [2005 Noise,Sanctuary, N04022, UK].wav
     Peak level 100.0 %
     Extraction speed 8.1 X
     Range quality 100.0 %
     Test CRC 2795CFE4
     Copy CRC 2795CFE4
     Copy OK
No errors occurred
AccurateRip summary
Track  1  accurately ripped (confidence 2)  [799E2C56]  (AR v1)
Track  2  accurately ripped (confidence 2)  [F154FDF8]  (AR v1)
Track  3  accurately ripped (confidence 2)  [533612DF]  (AR v1)
Track  4  accurately ripped (confidence 2)  [C507B31D]  (AR v1)
Track  5  accurately ripped (confidence 2)  [BEE2ABF6]  (AR v1)
Track  6  accurately ripped (confidence 2)  [6CF66676]  (AR v1)
Track  7  accurately ripped (confidence 2)  [222BC9C7]  (AR v1)
Track  8  accurately ripped (confidence 2)  [F58AD4B3]  (AR v1)
Track  9  accurately ripped (confidence 2)  [E896EB50]  (AR v1)
Track 10  accurately ripped (confidence 2)  [3DB08C52]  (AR v1)
Track 11  accurately ripped (confidence 2)  [36E17034]  (AR v1)
Track 12  accurately ripped (confidence 2)  [2C4A7ED2]  (AR v1)
Track 13  accurately ripped (confidence 2)  [80D56B57]  (AR v1)
Track 14  accurately ripped (confidence 2)  [54024562]  (AR v1)
Track 15  accurately ripped (confidence 2)  [F21EC1CA]  (AR v1)
Track 16  accurately ripped (confidence 2)  [4C27580A]  (AR v1)
All tracks accurately ripped
End of status report
---- CUETools DB Plugin V2.1.3
[CTDB TOCID: 5tJBA0h6zeSO.45nwzqce9KqDJs-] found, Submit result: 5tJBA0h6zeSO.45nwzqce9KqDJs- has been confirmed
[82dac6c2] (3/3) Accurately ripped
==== Log checksum 61BB0CEC382E24C6634F0055FD67DA0D1633FF1A1D9B4AFBCC39D303DEAF4ED1 ====
Трэклист:
1. Death Penalty
2. R.T.V.
3. Betrayed
4. Nation Over Nation
5. Days Of The Gun
6. Cities In Flames
7. Up From Zero
8. Two-Faced
9. Ich Brauch' Meinen Suff
10. Cyberworld
11. Mainhattan
12. Jimmy B. Bad
Код:
EAC extraction logfile from 4. November 2008, 19:22 for CD
tankard / two-faced
Used drive  : HL-DT-STDVD-ROM GDR8163B   Adapter: 0  ID: 1
Read mode   : Secure with NO C2, accurate stream, disable cache
Read offset correction : 102
Overread into Lead-In and Lead-Out : No
Used output format : C:\Archivos de programa\Exact Audio Copy\MAC.EXE   (Monkey's Audio Lossless Encoder)
                     High Lossless Compression
Other options      :
    Fill up missing offset samples with silence : Yes
    Delete leading and trailing silent blocks : No
    Native Win32 interface for Win NT & 2000
Range status and errors
Selected range
   Filename F:\MeTaLMaDNeSS.TeaM\tankard - [1994] two-faced\CDImage.wav
   Peak level 98.9 %
   Range quality 99.9 %
   CRC E1C35E63
   Copy OK
No errors occured
End of status report
Трэклист:
1. Death Penalty
2. R.T.V.
3. Betrayed
4. Nation Over Nation
5. Days Of The Gun
6. Cities In Flames
7. Up From Zero
8. Two-Faced
9. Ich Brauch' Meinen Suff
10. Cyberworld
11. Mainhattan
12. Jimmy B. Bad
Код:
Exact Audio Copy V0.99 prebeta 3 from 28. July 2007
Отчёт EAC об извлечении, выполненном 26. января 2011, 20:34
Tankard / Two-Faced (VICP-5366)
Дисковод: TSSTcorpCDDVDW SH-S202H   Adapter: 0  ID: 0
Режим чтения                 : Достоверность
Использование точного потока : Да
Отключение кэша аудио        : Да
Использование указателей C2  : Нет
Коррекция смещения при чтении                     : 6
Способность читать области Lead-in и Lead-out     : Нет
Заполнение пропущенных сэмплов тишиной            : Да
Удаление блоков с тишиной в начале и конце        : Нет
При вычислениях CRC использовались нулевые сэмплы : Да
Интерфейс                                         : Установленный внешний ASPI-интерфейс
Выходной формат : Внутренние WAV-операции
Формат сэмплов  : 44.100 Гц; 16 бит; стерео
TOC извлечённого CD
     Трек |   Старт  | Длительность | Начальный сектор | Конечный сектор
    ---------------------------------------------------------------------
       1  |  0:00.37 |    5:02.62   |          37      |      22748
       2  |  5:03.24 |    4:33.30   |       22749      |      43253
       3  |  9:36.54 |    3:33.10   |       43254      |      59238
       4  | 13:09.64 |    4:11.33   |       59239      |      78096
       5  | 17:21.22 |    5:31.12   |       78097      |     102933
       6  | 22:52.34 |    4:17.08   |      102934      |     122216
       7  | 27:09.42 |    5:47.67   |      122217      |     148308
       8  | 32:57.34 |    4:59.08   |      148309      |     170741
       9  | 37:56.42 |    2:54.47   |      170742      |     183838
      10  | 40:51.14 |    4:51.05   |      183839      |     205668
      11  | 45:42.19 |    4:23.40   |      205669      |     225433
      12  | 50:05.59 |    2:49.20   |      225434      |     238128
Характеристики диапазона извлечения и сообщения об ошибках
Выбранный диапазон
     Имя файла C:\Downloads\EAC\Tankard - Two-Faced (VICP-5366).wav
     Пиковый уровень 98.9 %
     Качество диапазона 100.0 %
     CRC теста 524FF494
     CRC копии 524FF494
     Копирование... OK
Ошибок не произошло
AccurateRip: сводка
Трек  1  нет в базе данных
Трек  2  нет в базе данных
Трек  3  нет в базе данных
Трек  4  нет в базе данных
Трек  5  нет в базе данных
Трек  6  нет в базе данных
Трек  7  нет в базе данных
Трек  8  нет в базе данных
Трек  9  нет в базе данных
Трек 10  нет в базе данных
Трек 11  нет в базе данных
Трек 12  нет в базе данных
Ни одного трека нет в базе AccurateRip
Конец отчёта
Трэклист:
1. Death Penalty
2. R.T.V.
3. Betrayed
4. Nation Over Nation
5. Days Of The Gun
6. Cities In Flames
7. Up From Zero
8. Two-Faced
9. Ich Brauch' Meinen Suff (2:55)
10. Cyberworld
11. Mainhatten
12. Jimmy B. Bad
13. Space Beer (Live) (Bonus track)
14. Zombie Attack
15. Alcohol (Live) (Bonus track)
16. Chemical Invasion (Live) (Bonus track)
17. (Empty) Tankard (Live) (Bonus track)
Код:
Exact Audio Copy V1.1 from 23. June 2015
EAC extraction logfile from 20. April 2016, 12:18
Tankard / Two-Faced
Used drive  : ASUS    DRW-24B1ST   Adapter: 1  ID: 1
Read mode               : Secure
Utilize accurate stream : Yes
Defeat audio cache      : Yes
Make use of C2 pointers : No
Read offset correction                      : 6
Overread into Lead-In and Lead-Out          : No
Fill up missing offset samples with silence : Yes
Delete leading and trailing silent blocks   : No
Null samples used in CRC calculations       : Yes
Used interface                              : Native Win32 interface for Win NT & 2000
Used output format              : User Defined Encoder
Selected bitrate                : 1024 kBit/s
Quality                         : High
Add ID3 tag                     : No
Command line compressor         : C:\Program Files (x86)\Exact Audio Copy\Flac\flac.exe
Additional command line options : -V -8 -T "Date=%year%" -T "Genre=%genre%" %source%
TOC of the extracted CD
     Track |   Start  |  Length  | Start sector | End sector
    ---------------------------------------------------------
        1  |  0:00.00 |  5:02.41 |         0    |    22690
        2  |  5:02.41 |  4:33.27 |     22691    |    43192
        3  |  9:35.68 |  3:33.13 |     43193    |    59180
        4  | 13:09.06 |  4:11.07 |     59181    |    78012
        5  | 17:20.13 |  5:31.38 |     78013    |   102875
        6  | 22:51.51 |  4:17.05 |    102876    |   122155
        7  | 27:08.56 |  5:47.70 |    122156    |   148250
        8  | 32:56.51 |  4:59.07 |    148251    |   170682
        9  | 37:55.58 |  2:54.48 |    170683    |   183780
       10  | 40:50.31 |  4:51.05 |    183781    |   205610
       11  | 45:41.36 |  4:23.40 |    205611    |   225375
       12  | 50:05.01 |  2:50.32 |    225376    |   238157
       13  | 52:55.33 |  4:57.33 |    238158    |   260465
       14  | 57:52.66 |  3:28.29 |    260466    |   276094
       15  | 61:21.20 |  2:09.69 |    276095    |   285838
       16  | 63:31.14 |  6:51.63 |    285839    |   316726
       17  | 70:23.02 |  6:58.11 |    316727    |   348087
Range status and errors
Selected range
     Filename E:\Torrent\Tankard\1994 - Two-Faced (2005 Remastered, Noise Records, N04032, E.U.)\Tankard - Two-Faced.wav
     Peak level 100.0 %
     Extraction speed 3.5 X
     Range quality 100.0 %
     Test CRC EAA62107
     Copy CRC EAA62107
     Copy OK
No errors occurred
AccurateRip summary
Track  1  cannot be verified as accurate (confidence 1)  [101775AE], AccurateRip returned [9F0336C6]  (AR v2)
Track  2  cannot be verified as accurate (confidence 1)  [384FE6CE], AccurateRip returned [A21F6155]  (AR v2)
Track  3  cannot be verified as accurate (confidence 1)  [6DA6FDF4], AccurateRip returned [60E580B3]  (AR v2)
Track  4  cannot be verified as accurate (confidence 1)  [93299B38], AccurateRip returned [7460DE11]  (AR v2)
Track  5  cannot be verified as accurate (confidence 1)  [30E985A5], AccurateRip returned [B584FFE2]  (AR v2)
Track  6  cannot be verified as accurate (confidence 1)  [060B58E9], AccurateRip returned [3F527136]  (AR v2)
Track  7  cannot be verified as accurate (confidence 1)  [3500E961], AccurateRip returned [67B80229]  (AR v2)
Track  8  cannot be verified as accurate (confidence 1)  [379B0D34], AccurateRip returned [EF897D66]  (AR v2)
Track  9  cannot be verified as accurate (confidence 1)  [49A91C3C], AccurateRip returned [94FE84F7]  (AR v2)
Track 10  cannot be verified as accurate (confidence 1)  [B4BB0EE5], AccurateRip returned [5FC63093]  (AR v2)
Track 11  cannot be verified as accurate (confidence 1)  [D383C988], AccurateRip returned [DEA91B21]  (AR v2)
Track 12  cannot be verified as accurate (confidence 1)  [6A895253], AccurateRip returned [AA7DF022]  (AR v2)
Track 13  cannot be verified as accurate (confidence 1)  [6463BE2A], AccurateRip returned [C6F0AFD6]  (AR v2)
Track 14  cannot be verified as accurate (confidence 1)  [C41172FD], AccurateRip returned [165D5204]  (AR v2)
Track 15  cannot be verified as accurate (confidence 1)  [B4F0773B], AccurateRip returned [AF9436C5]  (AR v2)
Track 16  cannot be verified as accurate (confidence 1)  [DAA4AE79], AccurateRip returned [A6185DF1]  (AR v2)
Track 17  cannot be verified as accurate (confidence 1)  [69F11A50], AccurateRip returned [0177B336]  (AR v2)
No tracks could be verified as accurate
You may have a different pressing from the one(s) in the database
End of status report
---- CUETools DB Plugin V2.1.6
[CTDB TOCID: gz85diohm4ia.gc1pN_D3_Ms3lg-] found
Submit result: gz85diohm4ia.gc1pN_D3_Ms3lg- has been confirmed
Track | CTDB Status
  1   | (1/2) Accurately ripped
  2   | (1/2) Accurately ripped
  3   | (1/2) Accurately ripped
  4   | (2/2) Accurately ripped
  5   | (1/2) Accurately ripped
  6   | (2/2) Accurately ripped
  7   | (1/2) Accurately ripped
  8   | (2/2) Accurately ripped
  9   | (1/2) Accurately ripped
 10   | (1/2) Accurately ripped
 11   | (1/2) Accurately ripped
 12   | (2/2) Accurately ripped
 13   | (1/2) Accurately ripped
 14   | (1/2) Accurately ripped
 15   | (2/2) Accurately ripped
 16   | (1/2) Accurately ripped
 17   | (2/2) Accurately ripped
==== Log checksum 3C22D4C13B0E632600A4D12F710A6A7CCAFB1B7897E98A087EB70B727671CD34 ====
Трэклист:
1. Grave New World
2. Minds On The Moon
3. The Story Of Mr. Cruel
4. Close Encounter
5. Poshor Golovar
6. Mess In The West
7. Atomic Twilight
8. Fuck Christmas
9. Positive
10. Hope?
Код:
Exact Audio Copy V1.1 from 23. June 2015
EAC extraction logfile from 29. January 2016, 11:30
Tankard / The Tankard
Used drive  : Optiarc DVD RW AD-7203A   Adapter: 1  ID: 1
Read mode               : Secure
Utilize accurate stream : Yes
Defeat audio cache      : Yes
Make use of C2 pointers : No
Read offset correction                      : 48
Overread into Lead-In and Lead-Out          : No
Fill up missing offset samples with silence : Yes
Delete leading and trailing silent blocks   : No
Null samples used in CRC calculations       : Yes
Used interface                              : Native Win32 interface for Win NT & 2000
Used output format              : User Defined Encoder
Selected bitrate                : 128 kBit/s
Quality                         : High
Add ID3 tag                     : No
Command line compressor         : C:\Program Files (x86)\Exact Audio Copy\Flac\flac.exe
Additional command line options : -V -8 -T "Date=%year%" -T "Genre=%genre%" %source%
TOC of the extracted CD
     Track |   Start  |  Length  | Start sector | End sector
    ---------------------------------------------------------
        1  |  0:00.00 |  5:53.55 |         0    |    26529
        2  |  5:53.55 |  3:20.02 |     26530    |    41531
        3  |  9:13.57 |  4:57.08 |     41532    |    63814
        4  | 14:10.65 |  4:25.35 |     63815    |    83724
        5  | 18:36.25 |  5:22.02 |     83725    |   107876
        6  | 23:58.27 |  4:21.45 |    107877    |   127496
        7  | 28:19.72 |  4:48.73 |    127497    |   149169
        8  | 33:08.70 |  2:46.70 |    149170    |   161689
        9  | 35:55.65 |  4:38.65 |    161690    |   182604
       10  | 40:34.55 |  3:59.02 |    182605    |   200531
Range status and errors
Selected range
     Filename C:\subrr for rutracker\Tankard - The Tankard.wav
     Peak level 100.0 %
     Extraction speed 3.6 X
     Range quality 100.0 %
     Test CRC AA3694FC
     Copy CRC AA3694FC
     Copy OK
No errors occurred
AccurateRip summary
Track  1  cannot be verified as accurate (confidence 7)  [7BADC47D], AccurateRip returned [B0AF5619]  (AR v2)
Track  2  cannot be verified as accurate (confidence 7)  [627EB13D], AccurateRip returned [6F63B8B3]  (AR v2)
Track  3  cannot be verified as accurate (confidence 7)  [F73A8DB4], AccurateRip returned [70EB9477]  (AR v2)
Track  4  cannot be verified as accurate (confidence 7)  [7582AB7B], AccurateRip returned [8C638F91]  (AR v2)
Track  5  cannot be verified as accurate (confidence 7)  [4C1C3BAA], AccurateRip returned [C4B393F4]  (AR v2)
Track  6  cannot be verified as accurate (confidence 7)  [3FFBD373], AccurateRip returned [74F035B6]  (AR v2)
Track  7  cannot be verified as accurate (confidence 7)  [A62BAFE8], AccurateRip returned [01BF41A6]  (AR v2)
Track  8  cannot be verified as accurate (confidence 7)  [0A0C72C0], AccurateRip returned [9577B908]  (AR v2)
Track  9  cannot be verified as accurate (confidence 7)  [779EC219], AccurateRip returned [AE28B040]  (AR v2)
Track 10  cannot be verified as accurate (confidence 7)  [54B38A8B], AccurateRip returned [CB20D855]  (AR v2)
No tracks could be verified as accurate
You may have a different pressing from the one(s) in the database
End of status report
---- CUETools DB Plugin V2.1.6
[CTDB TOCID: K6vOYcmSns2YlMGNQYpzeFCo080-] found
Submit result: K6vOYcmSns2YlMGNQYpzeFCo080- has been confirmed
Track | CTDB Status
  1   | ( 1/12) Accurately ripped
  2   | (12/12) Accurately ripped
  3   | ( 1/12) Accurately ripped
  4   | ( 1/12) Accurately ripped
  5   | ( 1/12) Accurately ripped
  6   | ( 1/12) Accurately ripped
  7   | ( 1/12) Accurately ripped
  8   | ( 1/12) Accurately ripped
  9   | (12/12) Accurately ripped
 10   | (12/12) Accurately ripped
==== Log checksum C0FD338D0E31D69FCE85EEE8050B6DBEB9CDACB7697EACD52EA465D38E9A9F8A ====
Трэклист:
1. Serial Killer
2. httр://www.Plаnetwide-Suicide.сom
3. Hard Rock Dinosaur
4. Queen Of Hearts
5. U-R-B
6. Mr. Superlover
7. Tankard Roach Motel
8. Another Perfect Day
9. Death By Whips
10. Away!
11. Face Of The Enemy
12. Splendid Boyz
13. Disco Destroyer
Код:
Exact Audio Copy V1.1 from 23. June 2015
EAC extraction logfile from 29. January 2016, 18:15
Tankard / Disco Destroyer
Used drive  : Optiarc DVD RW AD-7203A   Adapter: 1  ID: 1
Read mode               : Secure
Utilize accurate stream : Yes
Defeat audio cache      : Yes
Make use of C2 pointers : No
Read offset correction                      : 48
Overread into Lead-In and Lead-Out          : No
Fill up missing offset samples with silence : Yes
Delete leading and trailing silent blocks   : No
Null samples used in CRC calculations       : Yes
Used interface                              : Native Win32 interface for Win NT & 2000
Used output format              : User Defined Encoder
Selected bitrate                : 128 kBit/s
Quality                         : High
Add ID3 tag                     : No
Command line compressor         : C:\Program Files (x86)\Exact Audio Copy\Flac\flac.exe
Additional command line options : -V -8 -T "Date=%year%" -T "Genre=%genre%" %source%
TOC of the extracted CD
     Track |   Start  |  Length  | Start sector | End sector
    ---------------------------------------------------------
        1  |  0:00.00 |  2:34.00 |         0    |    11549
        2  |  2:34.00 |  4:03.02 |     11550    |    29776
        3  |  6:37.02 |  4:15.20 |     29777    |    48921
        4  | 10:52.22 |  5:12.18 |     48922    |    72339
        5  | 16:04.40 |  3:58.50 |     72340    |    90239
        6  | 20:03.15 |  3:53.27 |     90240    |   107741
        7  | 23:56.42 |  3:48.30 |    107742    |   124871
        8  | 27:44.72 |  3:20.03 |    124872    |   139874
        9  | 31:05.00 |  3:31.42 |    139875    |   155741
       10  | 34:36.42 |  3:53.45 |    155742    |   173261
       11  | 38:30.12 |  3:06.55 |    173262    |   187266
       12  | 41:36.67 |  3:00.63 |    187267    |   200829
       13  | 44:37.55 |  1:15.67 |    200830    |   206521
Range status and errors
Selected range
     Filename C:\subrr for rutracker\Tankard - Disco Destroyer.wav
     Peak level 98.0 %
     Extraction speed 3.7 X
     Range quality 99.9 %
     Test CRC 908E83D5
     Copy CRC 908E83D5
     Copy OK
No errors occurred
AccurateRip summary
Track  1  accurately ripped (confidence 7)  [DF0810AB]  (AR v2)
Track  2  accurately ripped (confidence 7)  [C3E3EB9B]  (AR v2)
Track  3  accurately ripped (confidence 7)  [533A89A2]  (AR v2)
Track  4  accurately ripped (confidence 7)  [E077C242]  (AR v2)
Track  5  accurately ripped (confidence 7)  [2A5499DF]  (AR v2)
Track  6  accurately ripped (confidence 7)  [8AE8543A]  (AR v2)
Track  7  accurately ripped (confidence 7)  [D4389976]  (AR v2)
Track  8  accurately ripped (confidence 7)  [31C58B5A]  (AR v2)
Track  9  accurately ripped (confidence 7)  [688FFCB5]  (AR v2)
Track 10  accurately ripped (confidence 7)  [A5F8C23F]  (AR v2)
Track 11  accurately ripped (confidence 7)  [339A812F]  (AR v2)
Track 12  accurately ripped (confidence 7)  [358231DC]  (AR v2)
Track 13  accurately ripped (confidence 7)  [7B70B392]  (AR v2)
All tracks accurately ripped
End of status report
---- CUETools DB Plugin V2.1.6
[CTDB TOCID: bmN8Umf9lv8Bkzpx45xxSlKlhSo-] found
Submit result: bmN8Umf9lv8Bkzpx45xxSlKlhSo- has been confirmed
Track | CTDB Status
  1   | (8/8) Accurately ripped
  2   | (8/8) Accurately ripped
  3   | (8/8) Accurately ripped
  4   | (8/8) Accurately ripped
  5   | (8/8) Accurately ripped
  6   | (8/8) Accurately ripped
  7   | (8/8) Accurately ripped
  8   | (8/8) Accurately ripped
  9   | (8/8) Accurately ripped
 10   | (8/8) Accurately ripped
 11   | (8/8) Accurately ripped
 12   | (8/8) Accurately ripped
 13   | (8/8) Accurately ripped
==== Log checksum 12B221225ECF680AF40490427E9DB1C127CCD14580412628D38D7C2614350A77 ====
Трэклист:
1. Serial Killer
2. httр://www.Plаnetwide-Suicide.сom
3. Hard Rock Dinosaur
4. Queen Of Hearts
5. U-R-B
6. Mr. Superlover
7. Tankard Roach Motel
8. Another Perfect Day
9. Death By Whips
10. Away!
11. Face Of The Enemy
12. Splendid Boyz
13. Disco Destroyer
14. Fast Taker (Bonus track)
Код:
Exact Audio Copy V1.1 from 23. June 2015
EAC extraction logfile from 19. April 2016, 20:32
Tankard / Disco Destroyer
Used drive  : ASUS    DRW-24B1ST   Adapter: 1  ID: 1
Read mode               : Secure
Utilize accurate stream : Yes
Defeat audio cache      : Yes
Make use of C2 pointers : No
Read offset correction                      : 6
Overread into Lead-In and Lead-Out          : No
Fill up missing offset samples with silence : Yes
Delete leading and trailing silent blocks   : No
Null samples used in CRC calculations       : Yes
Used interface                              : Native Win32 interface for Win NT & 2000
Used output format              : User Defined Encoder
Selected bitrate                : 1024 kBit/s
Quality                         : High
Add ID3 tag                     : No
Command line compressor         : C:\Program Files (x86)\Exact Audio Copy\Flac\flac.exe
Additional command line options : -V -8 -T "Date=%year%" -T "Genre=%genre%" %source%
TOC of the extracted CD
     Track |   Start  |  Length  | Start sector | End sector
    ---------------------------------------------------------
        1  |  0:00.00 |  2:34.00 |         0    |    11549
        2  |  2:34.00 |  4:03.02 |     11550    |    29776
        3  |  6:37.02 |  4:15.20 |     29777    |    48921
        4  | 10:52.22 |  5:12.18 |     48922    |    72339
        5  | 16:04.40 |  3:58.50 |     72340    |    90239
        6  | 20:03.15 |  3:53.27 |     90240    |   107741
        7  | 23:56.42 |  3:48.30 |    107742    |   124871
        8  | 27:44.72 |  3:20.04 |    124872    |   139875
        9  | 31:05.01 |  3:31.41 |    139876    |   155741
       10  | 34:36.42 |  3:53.45 |    155742    |   173261
       11  | 38:30.12 |  3:06.55 |    173262    |   187266
       12  | 41:36.67 |  3:00.63 |    187267    |   200829
       13  | 44:37.55 |  1:18.06 |    200830    |   206685
       14  | 45:55.61 |  3:16.14 |    206686    |   221399
Range status and errors
Selected range
     Filename E:\Torrent\Tankard\1998 - Disco Destroyer (2007 Re-issue, AFM Records, AFM 143-2, Germany)\Tankard - Disco Destroyer.wav
     Peak level 100.0 %
     Extraction speed 5.4 X
     Range quality 100.0 %
     Test CRC 5036A516
     Copy CRC 5036A516
     Copy OK
No errors occurred
AccurateRip summary
Track  1  accurately ripped (confidence 2)  [F403D27C]  (AR v2)
Track  2  accurately ripped (confidence 2)  [C2685D0C]  (AR v2)
Track  3  accurately ripped (confidence 2)  [9DA2E098]  (AR v2)
Track  4  accurately ripped (confidence 2)  [659C7A27]  (AR v2)
Track  5  accurately ripped (confidence 2)  [DF5A3F1F]  (AR v2)
Track  6  accurately ripped (confidence 2)  [38155CD0]  (AR v2)
Track  7  accurately ripped (confidence 2)  [A8FAB0C7]  (AR v2)
Track  8  accurately ripped (confidence 2)  [46430F56]  (AR v2)
Track  9  accurately ripped (confidence 2)  [1542AB11]  (AR v2)
Track 10  accurately ripped (confidence 2)  [A6B39DDF]  (AR v2)
Track 11  accurately ripped (confidence 2)  [8468D04A]  (AR v2)
Track 12  accurately ripped (confidence 2)  [E62AFC1C]  (AR v2)
Track 13  accurately ripped (confidence 2)  [2F96B4D1]  (AR v2)
Track 14  accurately ripped (confidence 2)  [EAA3EA49]  (AR v2)
All tracks accurately ripped
End of status report
---- CUETools DB Plugin V2.1.6
[CTDB TOCID: vDleKtRja5.o9TCsXYw8vhnsg_s-] found
Submit result: vDleKtRja5.o9TCsXYw8vhnsg_s- has been confirmed
Track | CTDB Status
  1   | (7/7) Accurately ripped
  2   | (7/7) Accurately ripped
  3   | (7/7) Accurately ripped
  4   | (7/7) Accurately ripped
  5   | (7/7) Accurately ripped
  6   | (7/7) Accurately ripped
  7   | (7/7) Accurately ripped
  8   | (7/7) Accurately ripped
  9   | (7/7) Accurately ripped
 10   | (7/7) Accurately ripped
 11   | (7/7) Accurately ripped
 12   | (7/7) Accurately ripped
 13   | (7/7) Accurately ripped
 14   | (7/7) Accurately ripped
==== Log checksum 6A6F5DBE45F476C0B092832C047065AF0CEA9F9E0FF3890FACF4E0DB01943466 ====
Трэклист:
1. Flirtin' With Desaster
2. Dark Exile
3. Hot Dog Inferno
4. Hell Bent For Jesus
5. Kings Of Beer
6. I'm So Sorry!
7. Talk Show Prostitute
8. Incredible Loudness
9. Land Of The Free
10. Mirror, Mirror
11. Tattoo Coward
Код:
Exact Audio Copy V1.1 from 23. June 2015
EAC extraction logfile from 29. January 2016, 19:14
Tankard / Kings of Beer
Used drive  : Optiarc DVD RW AD-7203A   Adapter: 1  ID: 1
Read mode               : Secure
Utilize accurate stream : Yes
Defeat audio cache      : Yes
Make use of C2 pointers : No
Read offset correction                      : 48
Overread into Lead-In and Lead-Out          : No
Fill up missing offset samples with silence : Yes
Delete leading and trailing silent blocks   : No
Null samples used in CRC calculations       : Yes
Used interface                              : Native Win32 interface for Win NT & 2000
Used output format              : User Defined Encoder
Selected bitrate                : 128 kBit/s
Quality                         : High
Add ID3 tag                     : No
Command line compressor         : C:\Program Files (x86)\Exact Audio Copy\Flac\flac.exe
Additional command line options : -V -8 -T "Date=%year%" -T "Genre=%genre%" %source%
TOC of the extracted CD
     Track |   Start  |  Length  | Start sector | End sector
    ---------------------------------------------------------
        1  |  0:00.00 |  4:03.22 |         0    |    18246
        2  |  4:03.22 |  4:53.40 |     18247    |    40261
        3  |  8:56.62 |  3:25.43 |     40262    |    55679
        4  | 12:22.30 |  4:20.44 |     55680    |    75223
        5  | 16:42.74 |  5:38.31 |     75224    |   100604
        6  | 22:21.30 |  3:12.44 |    100605    |   115048
        7  | 25:33.74 |  4:35.60 |    115049    |   135733
        8  | 30:09.59 |  3:43.57 |    135734    |   152515
        9  | 33:53.41 |  5:09.21 |    152516    |   175711
       10  | 39:02.62 |  4:20.25 |    175712    |   195236
       11  | 43:23.12 |  6:15.64 |    195237    |   223425
Range status and errors
Selected range
     Filename C:\subrr for rutracker\Tankard - Kings of Beer.wav
     Peak level 100.0 %
     Extraction speed 3.8 X
     Range quality 99.9 %
     Test CRC 5F7D05F6
     Copy CRC 5F7D05F6
     Copy OK
No errors occurred
AccurateRip summary
Track  1  accurately ripped (confidence 7)  [24C6DBCE]  (AR v2)
Track  2  accurately ripped (confidence 7)  [84F90F9F]  (AR v2)
Track  3  accurately ripped (confidence 7)  [77ACA6F1]  (AR v2)
Track  4  accurately ripped (confidence 7)  [E3F0D6D8]  (AR v2)
Track  5  accurately ripped (confidence 6)  [FF22D5EF]  (AR v2)
Track  6  accurately ripped (confidence 7)  [CCA703C6]  (AR v2)
Track  7  accurately ripped (confidence 7)  [A96349A3]  (AR v2)
Track  8  accurately ripped (confidence 7)  [2B982165]  (AR v2)
Track  9  accurately ripped (confidence 7)  [80BAF849]  (AR v2)
Track 10  accurately ripped (confidence 7)  [7087FA53]  (AR v2)
Track 11  accurately ripped (confidence 7)  [339D85C4]  (AR v2)
All tracks accurately ripped
End of status report
---- CUETools DB Plugin V2.1.6
[CTDB TOCID: gQZy5LFvp7o1c4.2.Z_QA.kolQ0-] found
Submit result: gQZy5LFvp7o1c4.2.Z_QA.kolQ0- has been confirmed
Track | CTDB Status
  1   | (12/12) Accurately ripped
  2   | (12/12) Accurately ripped
  3   | (12/12) Accurately ripped
  4   | (12/12) Accurately ripped
  5   | (12/12) Accurately ripped
  6   | (12/12) Accurately ripped
  7   | (12/12) Accurately ripped
  8   | (12/12) Accurately ripped
  9   | (12/12) Accurately ripped
 10   | (12/12) Accurately ripped
 11   | (12/12) Accurately ripped
==== Log checksum FFC0F6F1ED436D7B4F8B1E278EFC8F6D25402C8A520633D30F30858256B9AF3C ====
Трэклист:
1. Flirtin' With Desaster
2. Dark Exile
3. Hot Dog Inferno
4. Hell Bent For Jesus
5. Kings Of Beer
6. I'm So Sorry!
7. Talk Show Prostitute
8. Incredible Loudness
9. Land Of The Free
10. Mirror, Mirror
11. Tattoo Coward
12. Damage, Inc. (Bonus track)
Код:
Exact Audio Copy V1.1 from 23. June 2015
EAC extraction logfile from 21. April 2016, 10:19
Tankard / Kings Of Beer
Used drive  : ASUS    DRW-24B1ST   Adapter: 1  ID: 1
Read mode               : Secure
Utilize accurate stream : Yes
Defeat audio cache      : Yes
Make use of C2 pointers : No
Read offset correction                      : 6
Overread into Lead-In and Lead-Out          : No
Fill up missing offset samples with silence : Yes
Delete leading and trailing silent blocks   : No
Null samples used in CRC calculations       : Yes
Used interface                              : Native Win32 interface for Win NT & 2000
Used output format              : User Defined Encoder
Selected bitrate                : 1024 kBit/s
Quality                         : High
Add ID3 tag                     : No
Command line compressor         : C:\Program Files (x86)\Exact Audio Copy\Flac\flac.exe
Additional command line options : -V -8 -T "Date=%year%" -T "Genre=%genre%" %source%
TOC of the extracted CD
     Track |   Start  |  Length  | Start sector | End sector
    ---------------------------------------------------------
        1  |  0:00.00 |  4:03.15 |         0    |    18239
        2  |  4:03.15 |  4:53.39 |     18240    |    40253
        3  |  8:56.54 |  3:25.45 |     40254    |    55673
        4  | 12:22.24 |  4:20.44 |     55674    |    75217
        5  | 16:42.68 |  5:38.33 |     75218    |   100600
        6  | 22:21.26 |  3:12.49 |    100601    |   115049
        7  | 25:34.00 |  4:35.55 |    115050    |   135729
        8  | 30:09.55 |  3:43.63 |    135730    |   152517
        9  | 33:53.43 |  5:09.16 |    152518    |   175708
       10  | 39:02.59 |  4:20.22 |    175709    |   195230
       11  | 43:23.06 |  4:05.00 |    195231    |   213605
       12  | 47:28.06 |  5:10.51 |    213606    |   236906
Range status and errors
Selected range
     Filename E:\Torrent\Tankard\2000 - Kings Of Beer (2007 Remastered, AFM Records, AFM 144-2, Germany)\Tankard - Kings Of Beer.wav
     Peak level 100.0 %
     Extraction speed 3.0 X
     Range quality 100.0 %
     Test CRC B6C09F79
     Copy CRC B6C09F79
     Copy OK
No errors occurred
AccurateRip summary
Track  1  cannot be verified as accurate (confidence 2)  [096BD000], AccurateRip returned [6D5092AC]  (AR v2)
Track  2  cannot be verified as accurate (confidence 2)  [75220E15], AccurateRip returned [22983D5B]  (AR v2)
Track  3  cannot be verified as accurate (confidence 2)  [909C1B47], AccurateRip returned [8DEDCFFA]  (AR v2)
Track  4  cannot be verified as accurate (confidence 2)  [7660FF20], AccurateRip returned [77A0AE52]  (AR v2)
Track  5  cannot be verified as accurate (confidence 2)  [61A9DE87], AccurateRip returned [6CB025DA]  (AR v2)
Track  6  cannot be verified as accurate (confidence 2)  [B55E0E6B], AccurateRip returned [870C4472]  (AR v2)
Track  7  cannot be verified as accurate (confidence 2)  [43F9E275], AccurateRip returned [51388975]  (AR v2)
Track  8  cannot be verified as accurate (confidence 2)  [B5CEC75D], AccurateRip returned [A5D7599F]  (AR v2)
Track  9  cannot be verified as accurate (confidence 2)  [9086BD4E], AccurateRip returned [F79AA5F2]  (AR v2)
Track 10  cannot be verified as accurate (confidence 2)  [30442629], AccurateRip returned [9B98F2BE]  (AR v2)
Track 11  cannot be verified as accurate (confidence 2)  [25634A82], AccurateRip returned [1AC25ADD]  (AR v2)
Track 12  cannot be verified as accurate (confidence 2)  [97B0DAC6], AccurateRip returned [6C88C22F]  (AR v2)
No tracks could be verified as accurate
You may have a different pressing from the one(s) in the database
End of status report
---- CUETools DB Plugin V2.1.6
[CTDB TOCID: Ib6E6Q.R1P.Xa3efFAtj30x6bqg-] found
Submit result: Ib6E6Q.R1P.Xa3efFAtj30x6bqg- has been confirmed
Track | CTDB Status
  1   | (8/8) Accurately ripped
  2   | (8/8) Accurately ripped
  3   | (8/8) Accurately ripped
  4   | (8/8) Accurately ripped
  5   | (8/8) Accurately ripped
  6   | (8/8) Accurately ripped
  7   | (8/8) Accurately ripped
  8   | (8/8) Accurately ripped
  9   | (8/8) Accurately ripped
 10   | (8/8) Accurately ripped
 11   | (8/8) Accurately ripped
 12   | (8/8) Accurately ripped
==== Log checksum DEBE12A87E7E46460ED84FE71B30A508A708AD11EC770926B71A99F9F7479E20 ====
Трэклист:
1. Notorious Scum
2. Rectifier
3. Need Money For Beer
4. Ugly, Fat And Still Alive
5. Underground (Atmosphere: Hostile)
6. Voodoo Box
7. Sunscars
8. Zero Dude
9. New Liver Please!
10. Rundown Quarter
11. Alcoholic Nightmares
Bonus CD
Heavy Metal Vanguard (Demo) (1984)

1. Incredible Loudness
2. Devils Game
3. Arson
4. Mercenary
5. Heavy Metal
6. Death by Whips
7. Rundown Quarter
8. Alcohol
Alcoholic Metal (Demo) (1985)
9. Intro
10. Zombie Attack
11. Deadly Intention
12. Mercenary
13. Poison
14. Alien
15. Thunder And Lightning
16. Acid Death
17. Screaming Victims
Код:
Exact Audio Copy V1.0 beta 3 from 29. August 2011
EAC extraction logfile from 7. February 2013, 20:42
Tankard / B-Day [AFM, 509372 9, PL CD 003-9, Germany]
Used drive  : PIONEER DVD-RW  DVR-220L   Adapter: 3  ID: 0
Read mode               : Secure
Utilize accurate stream : Yes
Defeat audio cache      : Yes
Make use of C2 pointers : No
Read offset correction                      : 6
Overread into Lead-In and Lead-Out          : No
Fill up missing offset samples with silence : Yes
Delete leading and trailing silent blocks   : No
Null samples used in CRC calculations       : Yes
Used interface                              : Installed external ASPI interface
Used output format              : User Defined Encoder
Selected bitrate                : 1024 kBit/s
Quality                         : High
Add ID3 tag                     : No
Command line compressor         : C:\Program Files\Exact Audio Copy\FLAC\FLAC.EXE
Additional command line options : -V -8 -T "Date=%year%" -T "Genre=%genre%" %source%
TOC of the extracted CD
     Track |   Start  |  Length  | Start sector | End sector
    ---------------------------------------------------------
        1  |  0:00.00 |  3:51.60 |         0    |    17384
        2  |  3:51.60 |  4:11.60 |     17385    |    36269
        3  |  8:03.45 |  3:35.55 |     36270    |    52449
        4  | 11:39.25 |  3:56.60 |     52450    |    70209
        5  | 15:36.10 |  4:24.05 |     70210    |    90014
        6  | 20:00.15 |  4:21.50 |     90015    |   109639
        7  | 24:21.65 |  3:21.30 |    109640    |   124744
        8  | 27:43.20 |  4:25.52 |    124745    |   144671
        9  | 32:08.72 |  3:35.18 |    144672    |   160814
       10  | 35:44.15 |  3:33.62 |    160815    |   176851
       11  | 39:18.02 |  5:11.23 |    176852    |   200199
Range status and errors
Selected range
     Filename E:\CDRip by Deminbek\Tankard - B-Day [AFM, 509372 9, PL CD 003-9, Germany].wav
     Peak level 98.8 %
     Extraction speed 6.6 X
     Range quality 100.0 %
     Test CRC CDA499B0
     Copy CRC CDA499B0
     Copy OK
No errors occurred
AccurateRip summary
Track  1  accurately ripped (confidence 9)  [23E1FEB0]  (AR v1)
Track  2  accurately ripped (confidence 9)  [8F6CA56B]  (AR v1)
Track  3  accurately ripped (confidence 9)  [B26A4C77]  (AR v1)
Track  4  accurately ripped (confidence 9)  [6A5D3F3B]  (AR v1)
Track  5  accurately ripped (confidence 9)  [AAE722F3]  (AR v1)
Track  6  accurately ripped (confidence 9)  [4E9BFEB9]  (AR v1)
Track  7  accurately ripped (confidence 9)  [7DF8ABC0]  (AR v1)
Track  8  accurately ripped (confidence 9)  [3A57C8BE]  (AR v1)
Track  9  accurately ripped (confidence 9)  [29F61A2C]  (AR v1)
Track 10  accurately ripped (confidence 9)  [30326D7B]  (AR v1)
Track 11  accurately ripped (confidence 9)  [F7D6A2EE]  (AR v1)
All tracks accurately ripped
End of status report
---- CUETools DB Plugin V2.1.3
[CTDB TOCID: w1AsjxqBExfMnACLlQitO.WKzl4-] found, Submit result: w1AsjxqBExfMnACLlQitO.WKzl4- has been confirmed
[5850e0a0] (13/13) Accurately ripped
==== Log checksum 4744AFBF2E24AA3A3CD2C87501E5D5A3F1104FCC02B5F9F0AB59E1140A670688 ====
Код:
Exact Audio Copy V1.0 beta 3 from 29. August 2011
EAC extraction logfile from 7. February 2013, 21:27
Tankard / B-Day Bonus CD [AFM, 509372 9, PL CD 003-9, Germany]
Used drive  : PIONEER DVD-RW  DVR-220L   Adapter: 3  ID: 0
Read mode               : Secure
Utilize accurate stream : Yes
Defeat audio cache      : Yes
Make use of C2 pointers : No
Read offset correction                      : 6
Overread into Lead-In and Lead-Out          : No
Fill up missing offset samples with silence : Yes
Delete leading and trailing silent blocks   : No
Null samples used in CRC calculations       : Yes
Used interface                              : Installed external ASPI interface
Used output format              : User Defined Encoder
Selected bitrate                : 1024 kBit/s
Quality                         : High
Add ID3 tag                     : No
Command line compressor         : C:\Program Files\Exact Audio Copy\FLAC\FLAC.EXE
Additional command line options : -V -8 -T "Date=%year%" -T "Genre=%genre%" %source%
TOC of the extracted CD
     Track |   Start  |  Length  | Start sector | End sector
    ---------------------------------------------------------
        1  |  0:00.00 |  4:51.70 |         0    |    21894
        2  |  4:51.70 |  4:34.08 |     21895    |    42452
        3  |  9:26.03 |  4:33.00 |     42453    |    62927
        4  | 13:59.03 |  3:40.70 |     62928    |    79497
        5  | 17:39.73 |  3:36.05 |     79498    |    95702
        6  | 21:16.03 |  5:27.20 |     95703    |   120247
        7  | 26:43.23 |  4:07.03 |    120248    |   138775
        8  | 30:50.26 |  2:43.51 |    138776    |   151051
        9  | 33:34.02 |  0:53.20 |    151052    |   155046
       10  | 34:27.22 |  3:45.25 |    155047    |   171946
       11  | 38:12.47 |  2:57.59 |    171947    |   185280
       12  | 41:10.31 |  4:18.58 |    185281    |   204688
       13  | 45:29.14 |  4:23.67 |    204689    |   224480
       14  | 49:53.06 |  3:18.71 |    224481    |   239401
       15  | 53:12.02 |  5:20.09 |    239402    |   263410
       16  | 58:32.11 |  4:45.18 |    263411    |   284803
       17  | 63:17.29 |  3:35.13 |    284804    |   300941
Range status and errors
Selected range
     Filename E:\CDRip by Deminbek\Tankard - B-Day Bonus CD [AFM, 509372 9, PL CD 003-9, Germany].wav
     Peak level 100.0 %
     Extraction speed 3.9 X
     Range quality 99.9 %
     Test CRC 57CEBADF
     Copy CRC 57CEBADF
     Copy OK
No errors occurred
AccurateRip summary
Track  1  accurately ripped (confidence 8)  [C0E8CA5E]  (AR v1)
Track  2  accurately ripped (confidence 8)  [3F8D2444]  (AR v1)
Track  3  accurately ripped (confidence 8)  [50AE2A56]  (AR v1)
Track  4  accurately ripped (confidence 8)  [E495EBB7]  (AR v1)
Track  5  accurately ripped (confidence 8)  [B448C07F]  (AR v1)
Track  6  accurately ripped (confidence 8)  [808029C6]  (AR v1)
Track  7  accurately ripped (confidence 8)  [5077D6DC]  (AR v1)
Track  8  accurately ripped (confidence 8)  [BCA16584]  (AR v1)
Track  9  accurately ripped (confidence 8)  [7AFC69EE]  (AR v1)
Track 10  accurately ripped (confidence 8)  [FC42C03D]  (AR v1)
Track 11  accurately ripped (confidence 8)  [843263FE]  (AR v1)
Track 12  accurately ripped (confidence 8)  [0D81BE4C]  (AR v1)
Track 13  accurately ripped (confidence 8)  [3671B31A]  (AR v1)
Track 14  accurately ripped (confidence 8)  [E746FBC7]  (AR v1)
Track 15  accurately ripped (confidence 8)  [2B6E42A4]  (AR v1)
Track 16  accurately ripped (confidence 8)  [0547A4EC]  (AR v1)
Track 17  accurately ripped (confidence 8)  [AC122FA7]  (AR v1)
All tracks accurately ripped
End of status report
---- CUETools DB Plugin V2.1.3
[CTDB TOCID: ImVomoCiHD1_yn7cdoJADth28fE-] found, Submit result: ImVomoCiHD1_yn7cdoJADth28fE- has been confirmed
[335e7bcf] (11/11) Accurately ripped
==== Log checksum 6B114428E457BEA9DAC0C6230A4B9922C3540C3D5C8A0236AAF36DC23F4AA0F7 ====
Трэклист:
1. Notorious Scum
2. Rectifier
3. Need Money For Beer
4. Ugly, Fat And Still Alive
5. Underground (Atmosphere: Hostile)
6. Voodoo Box
7. Sunscars
8. Zero Dude
9. New Liver Please!
10. Rundown Quarter
11. Alcoholic Nightmares
Код:
Exact Audio Copy V1.1 from 23. June 2015
EAC extraction logfile from 18. April 2016, 8:33
Tankard / B-Day
Used drive  : ASUS    DRW-24B1ST   Adapter: 1  ID: 1
Read mode               : Secure
Utilize accurate stream : Yes
Defeat audio cache      : Yes
Make use of C2 pointers : No
Read offset correction                      : 6
Overread into Lead-In and Lead-Out          : No
Fill up missing offset samples with silence : Yes
Delete leading and trailing silent blocks   : No
Null samples used in CRC calculations       : Yes
Used interface                              : Native Win32 interface for Win NT & 2000
Used output format              : User Defined Encoder
Selected bitrate                : 1024 kBit/s
Quality                         : High
Add ID3 tag                     : No
Command line compressor         : C:\Program Files (x86)\Exact Audio Copy\Flac\flac.exe
Additional command line options : -V -8 -T "Date=%year%" -T "Genre=%genre%" %source%
TOC of the extracted CD
     Track |   Start  |  Length  | Start sector | End sector
    ---------------------------------------------------------
        1  |  0:00.00 |  3:52.63 |         0    |    17462
        2  |  3:52.63 |  4:12.61 |     17463    |    36423
        3  |  8:05.49 |  3:36.56 |     36424    |    52679
        4  | 11:42.30 |  3:57.61 |     52680    |    70515
        5  | 15:40.16 |  4:25.06 |     70516    |    90396
        6  | 20:05.22 |  4:22.51 |     90397    |   110097
        7  | 24:27.73 |  3:22.31 |    110098    |   125278
        8  | 27:50.29 |  4:25.48 |    125279    |   145201
        9  | 32:16.02 |  3:36.14 |    145202    |   161415
       10  | 35:52.16 |  3:34.63 |    161416    |   177528
       11  | 39:27.04 |  5:11.24 |    177529    |   200877
Range status and errors
Selected range
     Filename E:\Torrent\Tankard\2002 - B-Day (2010 Re-issue) (AFM Records, AFM 058-2, Germany)\Tankard - B-Day.wav
     Peak level 98.8 %
     Extraction speed 5.2 X
     Range quality 100.0 %
     Test CRC 81FAB746
     Copy CRC 81FAB746
     Copy OK
No errors occurred
AccurateRip summary
Track  1  not present in database
Track  2  not present in database
Track  3  not present in database
Track  4  not present in database
Track  5  not present in database
Track  6  not present in database
Track  7  not present in database
Track  8  not present in database
Track  9  not present in database
Track 10  not present in database
Track 11  not present in database
None of the tracks are present in the AccurateRip database
End of status report
---- CUETools DB Plugin V2.1.6
[CTDB TOCID: 9c7KJjVuPe51p3Sy3B3f8ZJMd.E-] disk not present in database
Submit result: 9c7KJjVuPe51p3Sy3B3f8ZJMd.E- has been uploaded
==== Log checksum 1D59F60C550BA728F9663FB98127824FC6B53A46E78CB0D3CFA9D8F25F101E56 ====
Трэклист:
1. Under Friendly Fire
2. Slipping From Reality
3. Genetic Overkill
4. Die With A Beer In Your Hand
5. The Horde
6. Endless Pleasure
7. Dead Men Drinking
8. Alien Revenge
9. Fistful Of Love
10. Beyond The Pubyard
11. We're Coming Back
Код:
Exact Audio Copy V1.0 beta 3 from 29. August 2011
EAC extraction logfile from 22. February 2013, 17:57
Tankard / Beast Of Bourbon [AFM, 076-2, Germany]
Used drive  : PIONEER DVD-RW  DVR-112D   Adapter: 1  ID: 0
Read mode               : Secure
Utilize accurate stream : Yes
Defeat audio cache      : Yes
Make use of C2 pointers : No
Read offset correction                      : 48
Overread into Lead-In and Lead-Out          : No
Fill up missing offset samples with silence : Yes
Delete leading and trailing silent blocks   : No
Null samples used in CRC calculations       : Yes
Used interface                              : Installed external ASPI interface
Used output format              : User Defined Encoder
Selected bitrate                : 1024 kBit/s
Quality                         : High
Add ID3 tag                     : No
Command line compressor         : C:\Program Files\Exact Audio Copy\FLAC\FLAC.EXE
Additional command line options : -V -8 -T "Date=%year%" -T "Genre=%genre%" %source%
TOC of the extracted CD
     Track |   Start  |  Length  | Start sector | End sector
    ---------------------------------------------------------
        1  |  0:00.00 |  3:04.52 |         0    |    13851
        2  |  3:04.52 |  4:16.17 |     13852    |    33068
        3  |  7:20.69 |  4:37.24 |     33069    |    53867
        4  | 11:58.18 |  5:33.40 |     53868    |    78882
        5  | 17:31.58 |  4:15.19 |     78883    |    98026
        6  | 21:47.02 |  4:51.15 |     98027    |   119866
        7  | 26:38.17 |  3:51.51 |    119867    |   137242
        8  | 30:29.68 |  3:35.55 |    137243    |   153422
        9  | 34:05.48 |  4:42.42 |    153423    |   174614
       10  | 38:48.15 |  3:25.22 |    174615    |   190011
       11  | 42:13.37 |  3:28.38 |    190012    |   205649
       12  | 48:14.00 |  0:29.45 |    217050    |   219269
Range status and errors
Selected range
     Filename E:\CDRip by Deminbek\Tankard - Beast Of Bourbon [AFM, 076-2, Germany].wav
     Peak level 100.0 %
     Extraction speed 6.7 X
     Range quality 99.9 %
     Test CRC 23E90544
     Copy CRC 23E90544
     Copy OK
No errors occurred
AccurateRip summary
Track  1  accurately ripped (confidence 7)  [C877AD46]  (AR v1)
Track  2  accurately ripped (confidence 7)  [7D7BE26F]  (AR v1)
Track  3  accurately ripped (confidence 7)  [96E6723E]  (AR v1)
Track  4  accurately ripped (confidence 7)  [6AB9EF97]  (AR v1)
Track  5  accurately ripped (confidence 7)  [21C56C73]  (AR v1)
Track  6  accurately ripped (confidence 7)  [DD95D500]  (AR v1)
Track  7  accurately ripped (confidence 7)  [CFAFB5F8]  (AR v1)
Track  8  accurately ripped (confidence 7)  [DC27AB3B]  (AR v1)
Track  9  accurately ripped (confidence 7)  [7ED6994C]  (AR v1)
Track 10  accurately ripped (confidence 7)  [51AF0976]  (AR v1)
Track 11  accurately ripped (confidence 7)  [8EFC3088]  (AR v1)
All tracks accurately ripped
End of status report
---- CUETools DB Plugin V2.1.3
[CTDB TOCID: mP.B5WXbf999u.unDK0bHcYmKz0-] found, Submit result: mP.B5WXbf999u.unDK0bHcYmKz0- has been confirmed
[3dfa61da] (8/8) Accurately ripped
==== Log checksum 3785A7CFD125BC833824061B50364555010B3BC3845CA9A971F4B76FBD4222AF ====
Трэклист:
1. Ice-Olation
2. We Still Drink The Old Ways
3. Forsaken World
4. Rockstars No. 1
5. The Beauty And The Beast
6. Blue Rage - Black Redemption
7. Frankfurt: We Need More Beer
8. Metaltometal
9. Dirty Digger
10. Shaken Not Stirred
Код:
Exact Audio Copy V1.1 from 23. June 2015
EAC extraction logfile from 18. April 2016, 9:17
Tankard / The Beauty And The Beer
Used drive  : ASUS    DRW-24B1ST   Adapter: 1  ID: 1
Read mode               : Secure
Utilize accurate stream : Yes
Defeat audio cache      : Yes
Make use of C2 pointers : No
Read offset correction                      : 6
Overread into Lead-In and Lead-Out          : No
Fill up missing offset samples with silence : Yes
Delete leading and trailing silent blocks   : No
Null samples used in CRC calculations       : Yes
Used interface                              : Native Win32 interface for Win NT & 2000
Used output format              : User Defined Encoder
Selected bitrate                : 1024 kBit/s
Quality                         : High
Add ID3 tag                     : No
Command line compressor         : C:\Program Files (x86)\Exact Audio Copy\Flac\flac.exe
Additional command line options : -V -8 -T "Date=%year%" -T "Genre=%genre%" %source%
TOC of the extracted CD
     Track |   Start  |  Length  | Start sector | End sector
    ---------------------------------------------------------
        1  |  0:00.00 |  5:10.08 |         0    |    23257
        2  |  5:10.08 |  4:05.56 |     23258    |    41688
        3  |  9:15.64 |  4:33.39 |     41689    |    62202
        4  | 13:49.28 |  4:03.46 |     62203    |    80473
        5  | 17:52.74 |  6:05.59 |     80474    |   107907
        6  | 23:58.58 |  4:05.36 |    107908    |   126318
        7  | 28:04.19 |  3:49.53 |    126319    |   143546
        8  | 31:53.72 |  4:50.48 |    143547    |   165344
        9  | 36:44.45 |  5:34.45 |    165345    |   190439
       10  | 42:19.15 |  3:36.27 |    190440    |   206666
Range status and errors
Selected range
     Filename E:\Torrent\Tankard\2006 - The Beauty And The Beer (AFM Records, AFM 108-2, Germany)\Tankard - The Beauty And The Beer.wav
     Peak level 100.0 %
     Extraction speed 5.2 X
     Range quality 100.0 %
     Test CRC 47517345
     Copy CRC 47517345
     Copy OK
No errors occurred
AccurateRip summary
Track  1  cannot be verified as accurate (confidence 2)  [1BB6115C], AccurateRip returned [D99A4492]  (AR v2)
Track  2  cannot be verified as accurate (confidence 2)  [8506A57D], AccurateRip returned [E413C347]  (AR v2)
Track  3  cannot be verified as accurate (confidence 2)  [8FAB5A07], AccurateRip returned [2099E280]  (AR v2)
Track  4  cannot be verified as accurate (confidence 2)  [608C5DCF], AccurateRip returned [9F3B6889]  (AR v2)
Track  5  cannot be verified as accurate (confidence 2)  [F2400DBC], AccurateRip returned [A37829D3]  (AR v2)
Track  6  cannot be verified as accurate (confidence 2)  [DFC5EC2D], AccurateRip returned [B33F679D]  (AR v2)
Track  7  cannot be verified as accurate (confidence 2)  [40DCDA19], AccurateRip returned [D4886CAD]  (AR v2)
Track  8  cannot be verified as accurate (confidence 2)  [2E97E91D], AccurateRip returned [476C5A46]  (AR v2)
Track  9  cannot be verified as accurate (confidence 2)  [C4BE5923], AccurateRip returned [6FCB3160]  (AR v2)
Track 10  cannot be verified as accurate (confidence 2)  [0B872AC8], AccurateRip returned [EA424D80]  (AR v2)
No tracks could be verified as accurate
You may have a different pressing from the one(s) in the database
End of status report
---- CUETools DB Plugin V2.1.6
[CTDB TOCID: BISiMldDL7eEqkJk7RJQwkblxUc-] found
Submit result: BISiMldDL7eEqkJk7RJQwkblxUc- has been confirmed
Track | CTDB Status
  1   | (14/14) Accurately ripped
  2   | (14/14) Accurately ripped
  3   | (14/14) Accurately ripped
  4   | (14/14) Accurately ripped
  5   | (14/14) Accurately ripped
  6   | (14/14) Accurately ripped
  7   | (14/14) Accurately ripped
  8   | (14/14) Accurately ripped
  9   | (14/14) Accurately ripped
 10   | (14/14) Accurately ripped
==== Log checksum 527F6B66C86803B77A061E8FA43437BED091540B71577D600F60954AFCC9CA1A ====
Трэклист:
1. Ice-Olation
2. We Still Drink The Old Ways
3. Forsaken World
4. Rockstars No. 1
5. The Beauty And The Beast
6. Blue Rage - Black Redemption
7. Frankfurt: We Need More Beer
8. Metaltometal
9. Dirty Digger
10. Shaken Not Stirred
11. Schwarz-Weiss Wie Schnee (Bonus track)
12. We're Coming Back (Live) (Bonus track)
13. Eurobbapokal (Bonus track)
14. Schwarz-Weiss Wie Schnee (Demo 1998) (Bonus track)
Enhanced videos:
15. The Beauty And The Beast (Videoclip, 2006)
16. Schwarz-Weiss Wie Schnee (Digicam-Mitschnitt aus dem Berliner Olimpiastadion, 29/04/06)
Код:
Exact Audio Copy V0.99 prebeta 4 from 23. January 2008
Отчёт EAC об извлечении, выполненном 9. ноября 2008, 15:35
Tankard / The Beauty And The Beast
Дисковод: Optiarc DVD RW AD-7173A   Adapter: 1  ID: 1
Режим чтения                 : Достоверность
Использование точного потока : Да
Отключение кэша аудио        : Да
Использование указателей C2  : Нет
Коррекция смещения при чтении                     : 48
Способность читать области Lead-in и Lead-out     : Нет
Заполнение пропущенных сэмплов тишиной            : Да
Удаление блоков с тишиной в начале и конце        : Нет
При вычислениях CRC использовались нулевые сэмплы : Нет
Интерфейс                                         : Встроенный Win32-интерфейс для Win NT/2000
Выходной формат          : Пользовательский кодировщик
Выбранный битрейт        : 768 kBit/s
Качество                 : Высокий
Добавление ID3-тэга      : Нет
Утилита сжатия           : C:\Program Files\Exact Audio Copy\FLAC\FLAC.EXE
Дополнительные параметры : -6 -V -T "ARTIST=%a" -T "TITLE=%t" -T "ALBUM=%g" -T "DATE=%y" -T "TRACKNUMBER=%n" -T "GENRE=%m" -T "COMMENT=%e" %s -o %d
TOC извлечённого CD
     Трек |   Старт  | Длительность | Начальный сектор | Конечный сектор
    ---------------------------------------------------------------------
       1  |  0:00.00 |    5:10.08   |           0      |      23257
       2  |  5:10.08 |    4:05.56   |       23258      |      41688
       3  |  9:15.64 |    4:33.39   |       41689      |      62202
       4  | 13:49.28 |    4:03.46   |       62203      |      80473
       5  | 17:52.74 |    6:05.59   |       80474      |     107907
       6  | 23:58.58 |    4:05.36   |      107908      |     126318
       7  | 28:04.19 |    3:49.53   |      126319      |     143546
       8  | 31:53.72 |    4:50.48   |      143547      |     165344
       9  | 36:44.45 |    5:34.45   |      165345      |     190439
      10  | 42:19.15 |    3:36.27   |      190440      |     206666
      11  | 45:55.42 |    3:38.57   |      206667      |     223073
      12  | 49:34.24 |    3:25.56   |      223074      |     238504
      13  | 53:00.05 |    1:28.41   |      238505      |     245145
      14  | 54:28.46 |    4:17.51   |      245146      |     264471
      15  | 61:18.22 |   17:29.09   |      275872      |     354555
Характеристики диапазона извлечения и сообщения об ошибках
Выбранный диапазон
     Имя файла F:\Tankard - The Beauty And The Beast.wav
     Пиковый уровень 100.0 %
     Качество диапазона 99.9 %
     CRC теста FF04D366
     CRC копии FF04D366
     Копирование... OK
Ошибок не произошло
AccurateRip: сводка
Трек  1  нет в базе данных
Трек  2  нет в базе данных
Трек  3  нет в базе данных
Трек  4  нет в базе данных
Трек  5  нет в базе данных
Трек  6  нет в базе данных
Трек  7  нет в базе данных
Трек  8  нет в базе данных
Трек  9  нет в базе данных
Трек 10  нет в базе данных
Трек 11  нет в базе данных
Трек 12  нет в базе данных
Трек 13  нет в базе данных
Трек 14  нет в базе данных
Ни одного трека нет в базе AccurateRip
Конец отчёта
Имя файла: Schwarz-Weiss Wie Schnee.mpg
Размер файла: 98.2 MiB
Длительность: 6mn 2s
Общий битрейт: 2 273 Kbps
Видео: MPEG4, 720x576 (5/4), 25.000 fps, 2 184 Kbps (0.211 bit/pixel)
Аудио: AAC LC, 44.1 KHz, 2 ch, 79.7 Kbps, VBR
Трэклист:
1. Octane Warriors
2. Deposit Pirates
3. Stay Thirsty!
4. Hyperthermia
5. Echoes Of Fear
6. When Daddy Comes To Play
7. Zodiac Man
8. G.A.L.O.W.
9. Myevilfart
10. Sexy Feet Under
Код:
Exact Audio Copy V1.1 from 23. June 2015
EAC extraction logfile from 18. April 2016, 14:25
Tankard / Thirst
Used drive  : ASUS    DRW-24B1ST   Adapter: 1  ID: 1
Read mode               : Secure
Utilize accurate stream : Yes
Defeat audio cache      : Yes
Make use of C2 pointers : No
Read offset correction                      : 6
Overread into Lead-In and Lead-Out          : No
Fill up missing offset samples with silence : Yes
Delete leading and trailing silent blocks   : No
Null samples used in CRC calculations       : Yes
Used interface                              : Native Win32 interface for Win NT & 2000
Used output format              : User Defined Encoder
Selected bitrate                : 1024 kBit/s
Quality                         : High
Add ID3 tag                     : No
Command line compressor         : C:\Program Files (x86)\Exact Audio Copy\Flac\flac.exe
Additional command line options : -V -8 -T "Date=%year%" -T "Genre=%genre%" %source%
TOC of the extracted CD
     Track |   Start  |  Length  | Start sector | End sector
    ---------------------------------------------------------
        1  |  0:00.00 |  5:08.16 |         0    |    23115
        2  |  5:08.16 |  5:15.17 |     23116    |    46757
        3  | 10:23.33 |  4:40.24 |     46758    |    67781
        4  | 15:03.57 |  3:48.43 |     67782    |    84924
        5  | 18:52.25 |  4:00.13 |     84925    |   102937
        6  | 22:52.38 |  5:35.38 |    102938    |   128100
        7  | 28:28.01 |  4:29.35 |    128101    |   148310
        8  | 32:57.36 |  3:51.41 |    148311    |   165676
        9  | 36:49.02 |  3:51.08 |    165677    |   183009
       10  | 40:40.10 |  6:12.63 |    183010    |   210972
Range status and errors
Selected range
     Filename E:\Torrent\Tankard\2008 - Thirst (AFM Records, AFM 231-9, Germany)\Tankard - Thirst.wav
     Peak level 99.8 %
     Extraction speed 5.3 X
     Range quality 100.0 %
     Test CRC 0D811EB6
     Copy CRC 0D811EB6
     Copy OK
No errors occurred
AccurateRip summary
Track  1  accurately ripped (confidence 3)  [A6AA8588]  (AR v2)
Track  2  accurately ripped (confidence 3)  [5C5C12B7]  (AR v2)
Track  3  accurately ripped (confidence 3)  [6B571DD3]  (AR v2)
Track  4  accurately ripped (confidence 3)  [C1F750BE]  (AR v2)
Track  5  accurately ripped (confidence 3)  [EF9688D6]  (AR v2)
Track  6  accurately ripped (confidence 3)  [DD7FE459]  (AR v2)
Track  7  accurately ripped (confidence 3)  [FFCF6F1E]  (AR v2)
Track  8  accurately ripped (confidence 3)  [21078203]  (AR v2)
Track  9  accurately ripped (confidence 3)  [6771A725]  (AR v2)
Track 10  accurately ripped (confidence 3)  [EE099EFA]  (AR v2)
All tracks accurately ripped
End of status report
---- CUETools DB Plugin V2.1.6
[CTDB TOCID: urleE1vWKlaBxoMKSyJIwjQbuaA-] found
Submit result: urleE1vWKlaBxoMKSyJIwjQbuaA- has been confirmed
Track | CTDB Status
  1   | (10/10) Accurately ripped
  2   | (10/10) Accurately ripped
  3   | ( 9/10) Accurately ripped
  4   | ( 9/10) Accurately ripped
  5   | (10/10) Accurately ripped
  6   | (10/10) Accurately ripped
  7   | (10/10) Accurately ripped
  8   | (10/10) Accurately ripped
  9   | (10/10) Accurately ripped
 10   | (10/10) Accurately ripped
==== Log checksum C81905FAA87BE1F662E27CF1C791589A88EE603237FC76200D5C1EB70AFCDEA7 ====
Трэклист:
1. Time Warp
2. Rules For Fools
3. Fat Snatchers (The Hippo Effect)
4. Black Plague (BP)
5. Somewhere In Nowhere
6. The Agency
7. Brain Piercing Of Death
8. Beck's In The City
9. Condemnation
10. Weekend Warriors
Код:
Exact Audio Copy V1.1 from 23. June 2015
EAC extraction logfile from 19. April 2016, 9:05
Tankard / Vol(l)ume 14
Used drive  : ASUS    DRW-24B1ST   Adapter: 1  ID: 1
Read mode               : Secure
Utilize accurate stream : Yes
Defeat audio cache      : Yes
Make use of C2 pointers : No
Read offset correction                      : 6
Overread into Lead-In and Lead-Out          : No
Fill up missing offset samples with silence : Yes
Delete leading and trailing silent blocks   : No
Null samples used in CRC calculations       : Yes
Used interface                              : Native Win32 interface for Win NT & 2000
Used output format              : User Defined Encoder
Selected bitrate                : 1024 kBit/s
Quality                         : High
Add ID3 tag                     : No
Command line compressor         : C:\Program Files (x86)\Exact Audio Copy\Flac\flac.exe
Additional command line options : -V -8 -T "Date=%year%" -T "Genre=%genre%" %source%
TOC of the extracted CD
     Track |   Start  |  Length  | Start sector | End sector
    ---------------------------------------------------------
        1  |  0:00.00 |  6:00.50 |         0    |    27049
        2  |  6:00.50 |  3:55.16 |     27050    |    44690
        3  |  9:55.66 |  5:10.39 |     44691    |    67979
        4  | 15:06.30 |  4:24.59 |     67980    |    87838
        5  | 19:31.14 |  4:07.47 |     87839    |   106410
        6  | 23:38.61 |  5:04.13 |    106411    |   129223
        7  | 28:42.74 |  4:18.39 |    129224    |   148612
        8  | 33:01.38 |  3:29.10 |    148613    |   164297
        9  | 36:30.48 |  6:22.09 |    164298    |   192956
       10  | 42:52.57 |  7:25.44 |    192957    |   226375
Range status and errors
Selected range
     Filename E:\Torrent\Tankard\2010 - Vol(l)ume 14 (AFM Records, AFM 324-9, Germany)\Tankard - Vol(l)ume 14.wav
     Peak level 100.0 %
     Extraction speed 5.5 X
     Range quality 100.0 %
     Test CRC 5C640CEC
     Copy CRC 5C640CEC
     Copy OK
No errors occurred
AccurateRip summary
Track  1  accurately ripped (confidence 10)  [302F4661]  (AR v2)
Track  2  accurately ripped (confidence 10)  [C0A4454A]  (AR v2)
Track  3  accurately ripped (confidence 10)  [220005E0]  (AR v2)
Track  4  accurately ripped (confidence 10)  [020EFEB9]  (AR v2)
Track  5  accurately ripped (confidence 10)  [446ADBA1]  (AR v2)
Track  6  accurately ripped (confidence 10)  [4A221AA4]  (AR v2)
Track  7  accurately ripped (confidence 10)  [75DE8522]  (AR v2)
Track  8  accurately ripped (confidence 10)  [7D0E4721]  (AR v2)
Track  9  accurately ripped (confidence 10)  [33600A2B]  (AR v2)
Track 10  accurately ripped (confidence 10)  [12F6D335]  (AR v2)
All tracks accurately ripped
End of status report
---- CUETools DB Plugin V2.1.6
[CTDB TOCID: dFzZz2hIlnpL9aEz_FzSYw5VwVs-] found
Submit result: dFzZz2hIlnpL9aEz_FzSYw5VwVs- has been confirmed
Track | CTDB Status
  1   | ( 9/10) Accurately ripped
  2   | ( 8/10) Accurately ripped
  3   | ( 9/10) Accurately ripped
  4   | ( 9/10) Accurately ripped
  5   | ( 9/10) Accurately ripped
  6   | ( 9/10) Accurately ripped
  7   | ( 9/10) Accurately ripped
  8   | ( 9/10) Accurately ripped
  9   | ( 9/10) Accurately ripped
 10   | ( 9/10) Accurately ripped
==== Log checksum 9ACC3ADC4C34952DF3EBEE131AC703E83EC7A13ADC6C85729E97E85DB793B20F ====
Трэклист:
1. Time Warp
2. Rules For Fools
3. Fat Snatchers (The Hippo Effect)
4. Black Plague (BP)
5. Somewhere In Nowhere
6. The Agency
7. Brain Piercing Of Death
8. Beck's In The City
9. Condemnation
10. Weekend Warriors
11. Forza Sge (Bonus track)
12. Schwarz-Weiss Wie Schnee (Bonus track)
13. Rules For Fools (Enhanced video)
Код:
Exact Audio Copy V0.99 prebeta 3 from 28. July 2007
Отчёт EAC об извлечении, выполненном 21. июня 2011, 20:30
Tankard / Vol(l)ume 14 (Japan, BWRD-001S)
Дисковод: TSSTcorpCDDVDW SH-S202H   Adapter: 0  ID: 0
Режим чтения                 : Достоверность
Использование точного потока : Да
Отключение кэша аудио        : Да
Использование указателей C2  : Нет
Коррекция смещения при чтении                     : 6
Способность читать области Lead-in и Lead-out     : Нет
Заполнение пропущенных сэмплов тишиной            : Да
Удаление блоков с тишиной в начале и конце        : Нет
При вычислениях CRC использовались нулевые сэмплы : Да
Интерфейс                                         : Встроенный Win32-интерфейс для Win NT/2000
Выходной формат : Внутренние WAV-операции
Формат сэмплов  : 44.100 Гц; 16 бит; стерео
TOC извлечённого CD
     Трек |   Старт  | Длительность | Начальный сектор | Конечный сектор
    ---------------------------------------------------------------------
       1  |  0:00.00 |    6:00.50   |           0      |      27049
       2  |  6:00.50 |    3:55.16   |       27050      |      44690
       3  |  9:55.66 |    5:10.39   |       44691      |      67979
       4  | 15:06.30 |    4:24.59   |       67980      |      87838
       5  | 19:31.14 |    4:07.47   |       87839      |     106410
       6  | 23:38.61 |    5:04.13   |      106411      |     129223
       7  | 28:42.74 |    4:18.39   |      129224      |     148612
       8  | 33:01.38 |    3:29.10   |      148613      |     164297
       9  | 36:30.48 |    6:22.09   |      164298      |     192956
      10  | 42:52.57 |    7:25.44   |      192957      |     226375
      11  | 50:18.26 |    3:53.32   |      226376      |     243882
      12  | 54:11.58 |    3:38.57   |      243883      |     260289
      13  | 60:22.40 |    4:30.50   |      271690      |     291989
Характеристики диапазона извлечения и сообщения об ошибках
Выбранный диапазон
     Имя файла C:\Downloads\EAC\Tankard - Vol(l)ume 14 (Japan, BWRD-001S).wav
     Пиковый уровень 100.0 %
     Качество диапазона 100.0 %
     CRC теста 1C30BC1F
     CRC копии 1C30BC1F
     Копирование... OK
Ошибок не произошло
AccurateRip: сводка
Трек  1  нет в базе данных
Трек  2  нет в базе данных
Трек  3  нет в базе данных
Трек  4  нет в базе данных
Трек  5  нет в базе данных
Трек  6  нет в базе данных
Трек  7  нет в базе данных
Трек  8  нет в базе данных
Трек  9  нет в базе данных
Трек 10  нет в базе данных
Трек 11  нет в базе данных
Трек 12  нет в базе данных
Ни одного трека нет в базе AccurateRip
Конец отчёта
Имя файла: RULES_FOR_FOOLS.mpg
Размер файла: 39.3 MiB
Длительность: 3mn 56s
Общий битрейт: 1 396 Kbps
Видео: MPEG 1, 352x240 (4/3), 29.970 fps, 1 150 Kbps (0.441 bit/pixel)
Аудио: MP2, 44.1 KHz, 2 ch, 224 Kbps, CBR
Трэклист:
1. Rapid Fire (A Tyrant's Elegy)
2. A Girl Called Cerveza
3. Witch-Hunt 2.0
4. Masters Of Farces
5. The Metal Ladyboy
6. Not One Day Dead (But Mad One Day)
7. Son Of A Fridge
8. Fandom At Random
9. Metal Magnolia
10. Running On Fumes
Код:
Exact Audio Copy V1.1 from 23. June 2015
EAC extraction logfile from 19. April 2016, 12:17
Tankard / A Girl Called Cerveza
Used drive  : ASUS    DRW-24B1ST   Adapter: 1  ID: 1
Read mode               : Secure
Utilize accurate stream : Yes
Defeat audio cache      : Yes
Make use of C2 pointers : No
Read offset correction                      : 6
Overread into Lead-In and Lead-Out          : No
Fill up missing offset samples with silence : Yes
Delete leading and trailing silent blocks   : No
Null samples used in CRC calculations       : Yes
Used interface                              : Native Win32 interface for Win NT & 2000
Used output format              : User Defined Encoder
Selected bitrate                : 1024 kBit/s
Quality                         : High
Add ID3 tag                     : No
Command line compressor         : C:\Program Files (x86)\Exact Audio Copy\Flac\flac.exe
Additional command line options : -V -8 -T "Date=%year%" -T "Genre=%genre%" %source%
TOC of the extracted CD
     Track |   Start  |  Length  | Start sector | End sector
    ---------------------------------------------------------
        1  |  0:00.00 |  5:12.15 |         0    |    23414
        2  |  5:12.15 |  4:14.28 |     23415    |    42492
        3  |  9:26.43 |  5:42.38 |     42493    |    68180
        4  | 15:09.06 |  4:08.51 |     68181    |    86831
        5  | 19:17.57 |  4:59.64 |     86832    |   109320
        6  | 24:17.46 |  4:01.11 |    109321    |   127406
        7  | 28:18.57 |  5:53.42 |    127407    |   153923
        8  | 34:12.24 |  5:27.74 |    153924    |   178522
        9  | 39:40.23 |  5:07.46 |    178523    |   201593
       10  | 44:47.69 |  5:30.06 |    201594    |   226349
Range status and errors
Selected range
     Filename E:\Torrent\Tankard\2012 - A Girl Called Cerveza (Nuclear Blast, NB 2917-0, 27361 29170, Germany)\Tankard - A Girl Called Cerveza.wav
     Peak level 98.7 %
     Extraction speed 5.4 X
     Range quality 100.0 %
     Test CRC 4CB93613
     Copy CRC 4CB93613
     Copy OK
No errors occurred
AccurateRip summary
Track  1  accurately ripped (confidence 11)  [A7580912]  (AR v2)
Track  2  accurately ripped (confidence 11)  [C3A679AD]  (AR v2)
Track  3  accurately ripped (confidence 11)  [1DC4C381]  (AR v2)
Track  4  accurately ripped (confidence 11)  [8B957F7F]  (AR v2)
Track  5  accurately ripped (confidence 11)  [3A8E3170]  (AR v2)
Track  6  accurately ripped (confidence 11)  [1A4067DC]  (AR v2)
Track  7  accurately ripped (confidence 11)  [0335F022]  (AR v2)
Track  8  accurately ripped (confidence 11)  [E1F12E62]  (AR v2)
Track  9  accurately ripped (confidence 11)  [E56DC352]  (AR v2)
Track 10  accurately ripped (confidence 11)  [C15DC8B3]  (AR v2)
All tracks accurately ripped
End of status report
---- CUETools DB Plugin V2.1.6
[CTDB TOCID: mg6XMPoT0jp9YPVFDXMsjnxpSdI-] found
Submit result: mg6XMPoT0jp9YPVFDXMsjnxpSdI- has been confirmed
Track | CTDB Status
  1   | (29/29) Accurately ripped
  2   | (29/29) Accurately ripped
  3   | (29/29) Accurately ripped
  4   | (29/29) Accurately ripped
  5   | (29/29) Accurately ripped
  6   | (29/29) Accurately ripped
  7   | (29/29) Accurately ripped
  8   | (29/29) Accurately ripped
  9   | (29/29) Accurately ripped
 10   | (29/29) Accurately ripped
==== Log checksum D21A671CE276448FCF7876CD9B16A85A3BEB363073D7C504307847BB61138077 ====
Трэклист:
1. Rapid Fire (A Tyrant's Elegy)
2. A Girl Called Cerveza
3. Witch-Hunt 2.0
4. Masters Of Farces
5. The Metal Ladyboy
6. Not One Day Dead (But Mad One Day)
7. Son Of A Fridge
8. Fandom At Random
9. Metal Magnolia
10. Running On Fumes
11. The Prisoner (Bonus track)
Код:
Exact Audio Copy V1.0 beta 3 from 29. August 2011
EAC extraction logfile from 20. April 2013, 21:31
Tankard / A Girl Called Cerveza (Japanese Edition)
Used drive  : HP      DVD Writer 1170d   Adapter: 2  ID: 0
Read mode               : Secure
Utilize accurate stream : Yes
Defeat audio cache      : Yes
Make use of C2 pointers : No
Read offset correction                      : 6
Overread into Lead-In and Lead-Out          : No
Fill up missing offset samples with silence : Yes
Delete leading and trailing silent blocks   : No
Null samples used in CRC calculations       : Yes
Used interface                              : Native Win32 interface for Win NT & 2000
Used output format              : User Defined Encoder
Selected bitrate                : 1024 kBit/s
Quality                         : High
Add ID3 tag                     : No
Command line compressor         : C:\Program Files\Exact Audio Copy\FLAC\FLAC.EXE
Additional command line options : -V -8 -T "Date=%year%" -T "Genre=%genre%" %source%
TOC of the extracted CD
     Track |   Start  |  Length  | Start sector | End sector
    ---------------------------------------------------------
        1  |  0:00.00 |  5:12.15 |         0    |    23414
        2  |  5:12.15 |  4:14.28 |     23415    |    42492
        3  |  9:26.43 |  5:42.38 |     42493    |    68180
        4  | 15:09.06 |  4:08.51 |     68181    |    86831
        5  | 19:17.57 |  4:59.64 |     86832    |   109320
        6  | 24:17.46 |  4:01.11 |    109321    |   127406
        7  | 28:18.57 |  5:53.42 |    127407    |   153923
        8  | 34:12.24 |  5:27.74 |    153924    |   178522
        9  | 39:40.23 |  5:07.46 |    178523    |   201593
       10  | 44:47.69 |  5:32.40 |    201594    |   226533
       11  | 50:20.34 |  5:15.26 |    226534    |   250184
Range status and errors
Selected range
     Filename C:\Users\Dima\Music\Tankard - A Girl Called Cerveza (Japanese Edition).wav
     Peak level 98.7 %
     Extraction speed 5.3 X
     Range quality 100.0 %
     Test CRC 04CDB646
     Copy CRC 04CDB646
     Copy OK
No errors occurred
AccurateRip summary
Track  1  not present in database
Track  2  not present in database
Track  3  not present in database
Track  4  not present in database
Track  5  not present in database
Track  6  not present in database
Track  7  not present in database
Track  8  not present in database
Track  9  not present in database
Track 10  not present in database
Track 11  not present in database
None of the tracks are present in the AccurateRip database
End of status report
---- CUETools DB Plugin V2.1.3
[CTDB TOCID: tpVNXxU.BttAW4Q5nPlhEJyxhWg-] disk not present in database, Submit result: tpVNXxU.BttAW4Q5nPlhEJyxhWg- has been uploaded
==== Log checksum 878D67CCF4CCF179774249E97E30B23C3FD6ECF0AB78C3B2E69E4A32C8A73E7A ====

Download
Для скачивания .torrent файлов необходима регистрация
Сайт не распространяет и не хранит электронные версии произведений, а лишь предоставляет доступ к создаваемому пользователями каталогу ссылок на торрент-файлы, которые содержат только списки хеш-сумм

Помоги нашему сайту любой суммой!


Кошелёк Номер счёта
На баланс телефона: +79046733080
Qiwi (Киви): +79046733080
Банковская карта: 5599 0050 8222 4002
Яндекс деньги (Можно перевести с любой карты): 410011822421129
(Рубли) WebMoney WMP: P981956481128
(Доллары) WebMoney WMZ: Z030977025876



Закрыть окно

Страница 1 из 1

Ответить на тему

   Похожие торренты   Торрент