Регистрация ·  Логин: Пароль: Запомнить   · Забыли пароль?




Ответить на тему
Статистика раздачи
Размер: 2.17 ГБ | Зарегистрирован: 10 июн 2021, 18:45 | .torrent скачан: 0 раз(а), DHT: [ 0 ] раз(а)
Сидеров: [ 0  | 0 байт/сек ]   Личеров: [ 0  | 0 байт/сек ]   DHT: [ 0 / 0 ]
Автор Сообщение

Модератор

С нами: 2 года 3 месяца
Сообщения: 3202
Россия

Сообщение 10 июн 2021, 18:45 

[Цитировать]


Информация
Название: Город мошенников
Оригинальное название: Rogue City / Bronx
Год выхода: 2020
Жанр: Боевик, триллер, драма, криминал

Режиссер: Оливье Маршаль
В ролях: Ланник Готри, Станислас Мерхар, Каарис, Давид Белль, Патрик Каталифо, Жан Рено, Мусса Мааскри, Катрин Маршаль, Франсис Рено, Эрика Сэйнт

Описание:
Действие развернётся в Марселе, где процветает преступность. После очередной перестрелки, которая усиливает напряжение между местными бандитскими группировками, город оказывается на грани войны полицейских и преступников. Но хуже всего то, что некоторые стражи порядка активно сотрудничают с преступниками, из-за чего вспыхивает коррупционный скандал, бросающий тень на честных сотрудников полиции. Новый начальник Эндж Леонетти решает раз и навсегда навести порядок в городе и отправляет честного, но жестокого агента Ричарда Ворнски расследовать многочисленные убийства...



Страна: Франция
Студия: Gaumont, uFund, uMedia Family
Продолжительность: 01:55:29
Перевод: Профессиональный (многоголосый, закадровый) | Jaskier | Присутствует ненормативная лексика

Файл
Качество: BDRip-AVC
Исходник: Banden.von.Marseille.2020.MULTi.COMPLETE.BLURAY-GMB
Формат: MKV
Кодек: MPEG-4 AVC
Видео: 1024x426 (2.40:1), 23.976 fps, MPEG-4 AVC ~ 1866 Kbps avg, 0.178 bit/pixel
Аудио: AC3, 48 kHz, 6 ch, ~384.00 kbps avg | русский | Jaskier
Аудио: AC3, 48 kHz, 6 ch, ~448.00 kbps avg | французский |
Субтитры: Русские (форсированные, полные), английские (полные)

Релиз:

x264 [info]: frame I:1273 Avg QP:12.38 size: 65370
x264 [info]: frame P:34464 Avg QP:15.18 size: 20936
x264 [info]: frame B:130389 Avg QP:17.01 size: 6189
x264 [info]: consecutive B-frames: 2.3% 2.7% 7.5% 16.3% 14.5% 31.0% 11.5% 7.7% 2.3% 0.9% 0.9% 0.5% 2.0%
****************************************

Общее
Уникальный идентификатор : 219600242126998365487312214412723670664 (0xA53577DCA82BB3742D96E628DB82CE88)
Полное имя : Bronx.2020.MVO.BDRip.2.17Gb.x264.MegaPeer.mkv
Формат : Matroska
Версия формата : Version 4
Размер файла : 2,17 Гбайт
Продолжительность : 1 ч. 55 м.
Общий поток : 2 695 Кбит/сек
Название фильма : Город мошенников / Rogue City / Bronx (2020) от MegaPeer
Дата кодирования : UTC 2021-05-19 18:46:29
Программа кодирования : mkvmerge v47.0.0 ('Black Flag') 64-bit
Библиотека кодирования : libebml v1.3.10 + libmatroska v1.5.2
Обложка : Yes
Attachments : cover.jpg

Видео
Идентификатор : 1
Формат : AVC
Формат/Информация : Advanced Video Codec
Профиль формата : [email protected]
Настройки формата : CABAC / 11 Ref Frames
Параметр CABAC формата : Да
Параметр RefFrames формата : 11 кадров
Идентификатор кодека : V_MPEG4/ISO/AVC
Продолжительность : 1 ч. 55 м.
Битрейт : 1 866 Кбит/сек
Ширина : 1 024 пикселя
Высота : 426 пикселей
Соотношение сторон : 2,40:1
Режим частоты кадров : Постоянный
Частота кадров : 23,976 кадра/сек
Цветовое пространство : YUV
Субдискретизация насыщенности : 4:2:0
Битовая глубина : 8 бит
Тип развёртки : Прогрессивная
Бит/(Пиксели*Кадры) : 0.178
Размер потока : 1,50 Гбайт (69%)
Заголовок : [email protected]
Библиотека кодирования : x264 core 161 r3018 db0d417
Настройки программы : cabac=1 / ref=11 / deblock=1:-3:-3 / analyse=0x3:0x113 / me=umh / subme=11 / psy=1 / psy_rd=1.00:0.00 / mixed_ref=1 / me_range=48 / chroma_me=1 / trellis=2 / 8x8dct=1 / cqm=0 / deadzone=21,11 / fast_pskip=0 / chroma_qp_offset=-2 / threads=13 / lookahead_threads=3 / sliced_threads=0 / nr=0 / decimate=0 / interlaced=0 / bluray_compat=0 / constrained_intra=0 / bframes=12 / b_pyramid=2 / b_adapt=2 / b_bias=0 / direct=3 / weightb=1 / open_gop=0 / weightp=2 / keyint=240 / keyint_min=24 / scenecut=40 / intra_refresh=0 / rc_lookahead=40 / rc=2pass / mbtree=0 / bitrate=1866 / ratetol=1.0 / qcomp=0.60 / qpmin=0 / qpmax=69 / qpstep=4 / cplxblur=20.0 / qblur=0.5 / vbv_maxrate=50000 / vbv_bufsize=62500 / nal_hrd=none / filler=0 / ip_ratio=1.40 / pb_ratio=1.30 / aq=1:1.10
Язык : German
Default : Да
Forced : Нет

Аудио #1
Идентификатор : 2
Формат : AC-3
Формат/Информация : Audio Coding 3
Коммерческое название : Dolby Digital
Идентификатор кодека : A_AC3
Продолжительность : 1 ч. 55 м.
Вид битрейта : Постоянный
Битрейт : 384 Кбит/сек
Каналы : 6 каналов
Channel layout : L R C LFE Ls Rs
Частота : 48,0 КГц
Частота кадров : 31,250 кадров/сек (1536 SPF)
Метод сжатия : С потерями
Размер потока : 317 Мбайт (14%)
Заголовок : MVO | Jaskier
Язык : Russian
Service kind : Complete Main
Default : Да
Forced : Да

Аудио #2
Идентификатор : 3
Формат : AC-3
Формат/Информация : Audio Coding 3
Коммерческое название : Dolby Digital
Идентификатор кодека : A_AC3
Продолжительность : 1 ч. 55 м.
Вид битрейта : Постоянный
Битрейт : 448 Кбит/сек
Каналы : 6 каналов
Channel layout : L R C LFE Ls Rs
Частота : 48,0 КГц
Частота кадров : 31,250 кадров/сек (1536 SPF)
Метод сжатия : С потерями
Размер потока : 370 Мбайт (17%)
Язык : French
Service kind : Complete Main
Default : Нет
Forced : Нет

Текст #1
Идентификатор : 4
Формат : UTF-8
Идентификатор кодека : S_TEXT/UTF8
Идентификатор кодека/Информация : UTF-8 Plain Text
Продолжительность : 1 ч. 47 м.
Битрейт : 0 бит/сек
Count of elements : 12
Размер потока : 430 байт (0%)
Заголовок : Forced
Язык : Russian
Default : Да
Forced : Да

Текст #2
Идентификатор : 5
Формат : UTF-8
Идентификатор кодека : S_TEXT/UTF8
Идентификатор кодека/Информация : UTF-8 Plain Text
Продолжительность : 1 ч. 47 м.
Битрейт : 67 бит/сек
Count of elements : 975
Размер потока : 52,9 Кбайт (0%)
Заголовок : Full | NetFlix
Язык : Russian
Default : Нет
Forced : Нет

Текст #3
Идентификатор : 6
Формат : UTF-8
Идентификатор кодека : S_TEXT/UTF8
Идентификатор кодека/Информация : UTF-8 Plain Text
Продолжительность : 1 ч. 47 м.
Битрейт : 39 бит/сек
Count of elements : 985
Размер потока : 30,9 Кбайт (0%)
Заголовок : Full
Язык : English
Default : Нет
Forced : Нет

Меню
00:00:00.000 : :ger: 01
00:11:25.850 : :ger: 02
00:19:24.078 : :ger: 03
00:28:11.897 : :ger: 04
00:39:19.315 : :ger: 05
00:48:43.128 : :ger: 06
00:58:33.175 : :ger: 07
01:10:14.877 : :ger: 08
01:18:11.853 : :ger: 09
01:27:53.518 : :ger: 10
01:37:11.992 : :ger: 11
01:47:05.335 : :ger: 12
01:55:28.337 : :ger: 13

Download
Для скачивания .torrent файлов необходима регистрация
Сайт не распространяет и не хранит электронные версии произведений, а лишь предоставляет доступ к создаваемому пользователями каталогу ссылок на торрент-файлы, которые содержат только списки хеш-сумм

Страница 1 из 1

Ответить на тему

   Похожие торренты   Торрент 




tracker_crontracker_cron