Регистрация ·  Логин: Пароль: Запомнить   · Забыли пароль?




Ответить на тему
Статистика раздачи
Размер: 9.57 ГБ | Зарегистрирован: 09 июн 2021, 19:46 | .torrent скачан: 0 раз(а), DHT: [ 2144 ] раз(а)
Сидеров: [ 320  | 0 байт/сек ]   Личеров: [ 24  | 0 байт/сек ]   DHT: [ 320 / 24 ]
Автор Сообщение

Модератор

С нами: 2 года 3 месяца
Сообщения: 3110
Россия

Сообщение 09 июн 2021, 19:46 

[Цитировать]


Информация о фильме
Название: Годзилла против Конга
Оригинальное название: Godzilla vs. Kong
Год выхода: 2021
Жанр: Боевик, фантастика
Режиссер: Адам Вингард
В ролях: Александр Скарсгард, Милли Бобби Браун, Ребекка Холл, Эйса Гонсалес, Лэнс Реддик, Джессика Хенвик, Кайл Чандлер, Джулиан Деннисон, Ван Мартен, Брайан Тайри Генри, Сюн Огури, Демиан Бичир



О фильме: По вине человечества Годзилла и Конг встречаются в неравной схватке. Тем временем, организация «Монарх», изучающая земную жизнь монстров, отправляет ученых в неизведанные земли, чтобы раскрыть тайну происхождения этих созданий. Однако опасность поджидает титанов с другой стороны — кое-кто планирует уничтожить всех гигантских существ.

Страна: США, Австралия, Канада, Индия
Студия: Legendary Pictures, Warner Bros.
Продолжительность: 01:53:08
Перевод(ы):
#1: Дублированный | iTunes
#2: Профессиональный многоголосый | HDRezka Studio
#3: Авторский | Яроцкий

Качество: BDRip 1080p
Видео: MPEG-4 AVC, 1920x804, 10.0 Mbit/s, 23.976 fps
Аудио #01: 48 kHz, AC3, 5.1, 384 Kbps | Дублированный | iTunes |
Аудио #02: 48 kHz, AC3, 5.1, 448 Kbps | Профессиональный многоголосый | HDRezka Studio | RUS |
Аудио #03: 48 kHz, AC3, 5.1, 640 Kbps | Авторский | Яроцкий | RUS |
Аудио #04: 48 kHz, AC3, 5.1, 640 Kbps | Оригинал | ENG |
Субтитры: Русские (2 x Forced, full), английские



General
Unique ID : 2399251440617673781410506421101477124 (0x1CE143A9CDEDC8B67D35978B7793D04)
Complete name : F:VideoGodzilla.vs.Kong.2021.BDRip.1080p.seleZen.mkv
Format : Matroska
Format version : Version 4
File size : 9.57 GiB
Duration : 1 h 53 min
Overall bit rate : 12.1 Mb/s
Movie name : Godzilla vs Kong 2021 from seleZen
Encoded date : UTC 2021-06-06 17:02:58
Writing application : mkvmerge v55.0.0 ('Waiting For Space') 64-bit
Writing library : libebml v1.4.2 + libmatroska v1.6.4

Video
ID : 1
Format : AVC
Format/Info : Advanced Video Codec
Format profile : [email protected]
Format settings : CABAC / 5 Ref Frames
Format settings, CABAC : Yes
Format settings, Reference : 5 frames
Codec ID : V_MPEG4/ISO/AVC
Duration : 1 h 53 min
Bit rate : 10 000 kb/s
Width : 1 920 pixels
Height : 804 pixels
Display aspect ratio : 2.40:1
Frame rate mode : Constant
Frame rate : 23.976 (24000/1001) FPS
Color space : YUV
Chroma subsampling : 4:2:0
Bit depth : 8 bits
Scan type : Progressive
Bits/(Pixel*Frame) : 0.270
Stream size : 7.90 GiB (83%)
Writing library : x264 core 146 -from seleZen
Encoding settings : cabac=1 / ref=5 / deblock=1:-2:-2 / analyse=0x3:0x133 / me=umh / subme=10 / psy=1 / psy_rd=1.05:0.05 / mixed_ref=1 / me_range=32 / chroma_me=1 / trellis=2 / 8x8dct=1 / cqm=0 / deadzone=21,11 / fast_pskip=0 / chroma_qp_offset=-3 / threads=36 / lookahead_threads=6 / sliced_threads=0 / nr=0 / decimate=0 / interlaced=0 / bluray_compat=0 / constrained_intra=0 / bframes=8 / b_pyramid=2 / b_adapt=2 / b_bias=0 / direct=3 / weightb=1 / open_gop=0 / weightp=2 / keyint=240 / keyint_min=23 / scenecut=40 / intra_refresh=0 / rc_lookahead=50 / rc=2pass / mbtree=0 / bitrate=10000 / ratetol=1.0 / qcomp=0.60 / qpmin=0 / qpmax=51 / qpstep=4 / cplxblur=20.0 / qblur=0.5 / vbv_maxrate=50000 / vbv_bufsize=62500 / nal_hrd=none / filler=0 / ip_ratio=1.40 / pb_ratio=1.30 / aq=3:0.80
Language : English
Default : Yes
Forced : No

Audio #1
ID : 2
Format : AC-3
Format/Info : Audio Coding 3
Commercial name : Dolby Digital
Codec ID : A_AC3
Duration : 1 h 53 min
Bit rate mode : Constant
Bit rate : 384 kb/s
Channel(s) : 6 channels
Channel layout : L R C LFE Ls Rs
Sampling rate : 48.0 kHz
Frame rate : 31.250 FPS (1536 SPF)
Compression mode : Lossy
Stream size : 311 MiB (3%)
Title : Dub
Language : Russian
Service kind : Complete Main
Default : Yes
Forced : Yes

Audio #2
ID : 3
Format : AC-3
Format/Info : Audio Coding 3
Commercial name : Dolby Digital
Codec ID : A_AC3
Duration : 1 h 53 min
Bit rate mode : Constant
Bit rate : 448 kb/s
Channel(s) : 6 channels
Channel layout : L R C LFE Ls Rs
Sampling rate : 48.0 kHz
Frame rate : 31.250 FPS (1536 SPF)
Compression mode : Lossy
Stream size : 363 MiB (4%)
Title : MVO [HDRezka Studio]
Language : Russian
Service kind : Complete Main
Default : No
Forced : No

Audio #3
ID : 4
Format : AC-3
Format/Info : Audio Coding 3
Commercial name : Dolby Digital
Codec ID : A_AC3
Duration : 1 h 53 min
Bit rate mode : Constant
Bit rate : 640 kb/s
Channel(s) : 6 channels
Channel layout : L R C LFE Ls Rs
Sampling rate : 48.0 kHz
Frame rate : 31.250 FPS (1536 SPF)
Compression mode : Lossy
Stream size : 518 MiB (5%)
Title : AVO [М.Яроцкий]
Language : Russian
Service kind : Complete Main
Default : No
Forced : No

Audio #4
ID : 5
Format : AC-3
Format/Info : Audio Coding 3
Commercial name : Dolby Digital
Codec ID : A_AC3
Duration : 1 h 53 min
Bit rate mode : Constant
Bit rate : 640 kb/s
Channel(s) : 6 channels
Channel layout : L R C LFE Ls Rs
Sampling rate : 48.0 kHz
Frame rate : 31.250 FPS (1536 SPF)
Compression mode : Lossy
Stream size : 518 MiB (5%)
Title : Original
Language : English
Service kind : Complete Main
Default : No
Forced : No

Text #1
ID : 6
Format : UTF-8
Codec ID : S_TEXT/UTF8
Codec ID/Info : UTF-8 Plain Text
Duration : 1 h 52 min
Bit rate : 4 b/s
Count of elements : 102
Stream size : 3.64 KiB (0%)
Title : Forced
Language : Russian
Default : Yes
Forced : Yes

Text #2
ID : 7
Format : UTF-8
Codec ID : S_TEXT/UTF8
Codec ID/Info : UTF-8 Plain Text
Duration : 1 h 44 min
Bit rate : 7 b/s
Count of elements : 129
Stream size : 5.38 KiB (0%)
Title : Forced [HDRezka Studio]
Language : Russian
Default : No
Forced : No

Text #3
ID : 8
Format : UTF-8
Codec ID : S_TEXT/UTF8
Codec ID/Info : UTF-8 Plain Text
Duration : 1 h 52 min
Bit rate : 62 b/s
Count of elements : 916
Stream size : 51.5 KiB (0%)
Title : Full
Language : Russian
Default : No
Forced : No

Text #4
ID : 9
Format : UTF-8
Codec ID : S_TEXT/UTF8
Codec ID/Info : UTF-8 Plain Text
Duration : 1 h 45 min
Bit rate : 50 b/s
Count of elements : 1415
Stream size : 39.5 KiB (0%)
Language : English
Default : No
Forced : No

Menu
00:00:00.000 : en:Chapter 01
00:09:51.591 : en:Chapter 02
00:20:07.498 : en:Chapter 03
00:29:02.366 : en:Chapter 04
00:38:39.734 : en:Chapter 05
00:49:15.995 : en:Chapter 06
00:57:17.017 : en:Chapter 07
01:09:07.977 : en:Chapter 08
01:18:33.876 : en:Chapter 09
01:30:06.109 : en:Chapter 10
01:41:58.946 : en:Chapter 11


Релиз: Присоединяйся к:


Download
Для скачивания .torrent файлов необходима регистрация
Сайт не распространяет и не хранит электронные версии произведений, а лишь предоставляет доступ к создаваемому пользователями каталогу ссылок на торрент-файлы, которые содержат только списки хеш-сумм

Страница 1 из 1

Ответить на тему

   Похожие торренты   Торрент 




tracker_crontracker_cron