Регистрация ·  Логин: Пароль: Запомнить   · Забыли пароль?




Ответить на тему
Статистика раздачи
Размер: 24.95 ГБ | Зарегистрирован: 09 июн 2021, 19:45 | .torrent скачан: 0 раз(а), DHT: [ 651 ] раз(а)
Сидеров: [ 94  | 0 байт/сек ]   Личеров: [ 22  | 0 байт/сек ]   DHT: [ 94 / 22 ]
Автор Сообщение

Модератор

С нами: 2 года 3 месяца
Сообщения: 3110
Россия

Сообщение 09 июн 2021, 19:45 

[Цитировать]


Информация о фильме
Название: Годзилла против Конга
Оригинальное название: Godzilla vs. Kong
Год выхода: 2021
Жанр: Боевик, фантастика
Режиссер: Адам Вингард
В ролях: Александр Скарсгард, Милли Бобби Браун, Ребекка Холл, Эйса Гонсалес, Лэнс Реддик, Джессика Хенвик, Кайл Чандлер, Джулиан Деннисон, Ван Мартен, Брайан Тайри Генри, Сюн Огури, Демиан Бичир



О фильме: По вине человечества Годзилла и Конг встречаются в неравной схватке. Тем временем, организация «Монарх», изучающая земную жизнь монстров, отправляет ученых в неизведанные земли, чтобы раскрыть тайну происхождения этих созданий. Однако опасность поджидает титанов с другой стороны — кое-кто планирует уничтожить всех гигантских существ.

Страна: США, Австралия, Канада, Индия
Студия: Legendary Pictures, Warner Bros.
Продолжительность: 01:53:08
Перевод(ы):
#1: Дублированный | iTunes
#2: Профессиональный многоголосый | HDRezka Studio
#3: Авторский | Яроцкий

Качество: BDRemux 1080p
Видео: MPEG-4 AVC, 1920x1080, 25.9 Mbit/s, 23.976 fps
Аудио #01: 48 kHz, AC3, 5.1, 384 Kbps | Дублированный | iTunes |
Аудио #02: 48 kHz, AC3, 5.1, 448 Kbps | Профессиональный многоголосый | HDRezka Studio | RUS |
Аудио #03: 48 kHz, AC3, 5.1, 640 Kbps | Авторский | Яроцкий | RUS |
Аудио #04: 48 kHz, TrueHD, 7.1, 3455 Kbps | Оригинал | ENG |
Аудио #05: 48 kHz, AC3, 5.1, 640 Kbps | Оригинал | ENG |
Субтитры: Русские (2 x Forced, full), английские



General
Unique ID : 220159935122236767466967031214616961700 (0xA5A142DB6C3EA421EDDF043D935D62A4)
Complete name : F:VideoGodzilla.vs.Kong.2021.BDREMUX.1080p.seleZen.mkv
Format : Matroska
Format version : Version 4
File size : 25.0 GiB
Duration : 1 h 53 min
Overall bit rate mode : Variable
Overall bit rate : 31.6 Mb/s
Movie name : Godzilla vs Kong 2021 from seleZen
Encoded date : UTC 2021-06-06 15:20:46
Writing application : mkvmerge v55.0.0 ('Waiting For Space') 64-bit
Writing library : libebml v1.4.2 + libmatroska v1.6.4

Video
ID : 1
Format : AVC
Format/Info : Advanced Video Codec
Format profile : [email protected]
Format settings : CABAC / 2 Ref Frames
Format settings, CABAC : Yes
Format settings, Reference : 2 frames
Format settings, GOP : M=1, N=10
Codec ID : V_MPEG4/ISO/AVC
Duration : 1 h 53 min
Bit rate mode : Variable
Bit rate : 25.9 Mb/s
Width : 1 920 pixels
Height : 1 080 pixels
Display aspect ratio : 16:9
Frame rate mode : Constant
Frame rate : 23.976 (24000/1001) FPS
Color space : YUV
Chroma subsampling : 4:2:0
Bit depth : 8 bits
Scan type : Progressive
Bits/(Pixel*Frame) : 0.522
Stream size : 20.5 GiB (82%)
Language : English
Default : No
Forced : No

Audio #1
ID : 2
Format : AC-3
Format/Info : Audio Coding 3
Commercial name : Dolby Digital
Codec ID : A_AC3
Duration : 1 h 53 min
Bit rate mode : Constant
Bit rate : 384 kb/s
Channel(s) : 6 channels
Channel layout : L R C LFE Ls Rs
Sampling rate : 48.0 kHz
Frame rate : 31.250 FPS (1536 SPF)
Compression mode : Lossy
Stream size : 311 MiB (1%)
Title : Dub
Language : Russian
Service kind : Complete Main
Default : Yes
Forced : Yes

Audio #2
ID : 3
Format : AC-3
Format/Info : Audio Coding 3
Commercial name : Dolby Digital
Codec ID : A_AC3
Duration : 1 h 53 min
Bit rate mode : Constant
Bit rate : 448 kb/s
Channel(s) : 6 channels
Channel layout : L R C LFE Ls Rs
Sampling rate : 48.0 kHz
Frame rate : 31.250 FPS (1536 SPF)
Compression mode : Lossy
Stream size : 363 MiB (1%)
Title : MVO [HDRezka Studio]
Language : Russian
Service kind : Complete Main
Default : No
Forced : No

Audio #3
ID : 4
Format : AC-3
Format/Info : Audio Coding 3
Commercial name : Dolby Digital
Codec ID : A_AC3
Duration : 1 h 53 min
Bit rate mode : Constant
Bit rate : 640 kb/s
Channel(s) : 6 channels
Channel layout : L R C LFE Ls Rs
Sampling rate : 48.0 kHz
Frame rate : 31.250 FPS (1536 SPF)
Compression mode : Lossy
Stream size : 518 MiB (2%)
Title : AVO [М.Яроцкий]
Language : Russian
Service kind : Complete Main
Default : No
Forced : No

Audio #4
ID : 5
Format : MLP FBA 16-ch
Format/Info : Meridian Lossless Packing FBA with 16-channel presentation
Commercial name : Dolby TrueHD with Dolby Atmos
Codec ID : A_TRUEHD
Duration : 1 h 53 min
Bit rate mode : Variable
Bit rate : 3 455 kb/s
Maximum bit rate : 5 742 kb/s
Channel(s) : 8 channels
Channel layout : L R C LFE Ls Rs Lb Rb
Sampling rate : 48.0 kHz
Frame rate : 1 200.000 FPS (40 SPF)
Compression mode : Lossless
Stream size : 2.73 GiB (11%)
Title : Original
Language : English
Default : No
Forced : No
Number of dynamic objects : 11
Bed channel count : 1 channel
Bed channel configuration : LFE

Audio #5
ID : 6
Format : AC-3
Format/Info : Audio Coding 3
Commercial name : Dolby Digital
Codec ID : A_AC3
Duration : 1 h 53 min
Bit rate mode : Constant
Bit rate : 640 kb/s
Channel(s) : 6 channels
Channel layout : L R C LFE Ls Rs
Sampling rate : 48.0 kHz
Frame rate : 31.250 FPS (1536 SPF)
Compression mode : Lossy
Stream size : 518 MiB (2%)
Language : English
Service kind : Complete Main
Default : No
Forced : No

Text #1
ID : 7
Format : UTF-8
Codec ID : S_TEXT/UTF8
Codec ID/Info : UTF-8 Plain Text
Duration : 1 h 52 min
Bit rate : 4 b/s
Count of elements : 102
Stream size : 3.64 KiB (0%)
Title : Forced
Language : Russian
Default : Yes
Forced : Yes

Text #2
ID : 8
Format : UTF-8
Codec ID : S_TEXT/UTF8
Codec ID/Info : UTF-8 Plain Text
Duration : 1 h 44 min
Bit rate : 7 b/s
Count of elements : 129
Stream size : 5.38 KiB (0%)
Title : Forced [HDRezka Studio]
Language : Russian
Default : No
Forced : No

Text #3
ID : 9
Format : UTF-8
Codec ID : S_TEXT/UTF8
Codec ID/Info : UTF-8 Plain Text
Duration : 1 h 52 min
Bit rate : 62 b/s
Count of elements : 916
Stream size : 51.5 KiB (0%)
Title : Full
Language : Russian
Default : No
Forced : No

Text #4
ID : 10
Format : UTF-8
Codec ID : S_TEXT/UTF8
Codec ID/Info : UTF-8 Plain Text
Duration : 1 h 45 min
Bit rate : 50 b/s
Count of elements : 1415
Stream size : 39.5 KiB (0%)
Language : English
Default : No
Forced : No

Menu
00:00:00.000 : en:Chapter 01
00:09:51.591 : en:Chapter 02
00:20:07.498 : en:Chapter 03
00:29:02.366 : en:Chapter 04
00:38:39.734 : en:Chapter 05
00:49:15.995 : en:Chapter 06
00:57:17.017 : en:Chapter 07
01:09:07.977 : en:Chapter 08
01:18:33.876 : en:Chapter 09
01:30:06.109 : en:Chapter 10
01:41:58.946 : en:Chapter 11


Релиз: Присоединяйся к:


Download
Для скачивания .torrent файлов необходима регистрация
Сайт не распространяет и не хранит электронные версии произведений, а лишь предоставляет доступ к создаваемому пользователями каталогу ссылок на торрент-файлы, которые содержат только списки хеш-сумм

Страница 1 из 1

Ответить на тему

   Похожие торренты   Торрент 




tracker_crontracker_cron