Регистрация ·  Логин: Пароль: Запомнить   · Забыли пароль?




Ответить на тему
Статистика раздачи
Размер: 8.58 ГБ | Зарегистрирован: 02 июн 2021, 09:47 | .torrent скачан: 0 раз(а), DHT: [ 60 ] раз(а)
Сидеров: [ 58  | 0 байт/сек ]   Личеров: [ 139  | 0 байт/сек ]   DHT: [ 58 / 139 ]
Автор Сообщение

Модератор
Аватара пользователя

С нами: 7 лет 2 месяца
Сообщения: 10689
Откуда: Гуанчжоу
Китай

Сообщение 02 июн 2021, 09:47 

[Цитировать]


«La historia del robo que hizo historia»

Информация о фильме
Название: Афера века
Оригинальное название: El robo del siglo / The Heist of the Century
Год выхода: 2020
Жанр: Боевик, драма, комедия, криминал, биография

Режиссер: Ариэль Виноград
В ролях: Гильермо Франселья, Диего Перетти, Луис Луке, Пабло Раго, Рафаэль Ферро, Мариано Архенто, Хуан Алари, Джоанна Франселла, Марио Аларкон, Почи Дукассе

О фильме:
В самом фешенебельном пригороде Буэнос-Айреса пятеро грабителей ворвались в здание банка Рио де Акассусо. Взяв в заложники всех сотрудников и посетителей банка, они начали переговоры с прибывшей полицией. Пока сотни полицейских окружали здание, благодаря хитроумному плану и тщательной подготовке преступникам удалось вынести из хранилища деньги и ценности на общую сумму в более чем 15 миллионов долларов.



Страна: Аргентина
Студия: AZ Films, Mar Vista Productions, Televisión Federal (Telefe), VFX Boat
Продолжительность: 01:54:28
Перевод: Профессиональный (полное дублирование) | Blu-ray RUS | Лицензия

Файл
Качество: BDRip 1080p
Исходник: AFERA_VEKA_2020_RUS_BLUEBIRD
Формат: MKV
Кодек: MPEG-4 AVC
Видео: 1920x804 (2.40:1), 24 fps, MPEG-4 AVC ~ 8 575 Kbps avg, 0.231 bit/pixel
Аудио: AC3, 48 kHz, 6 ch, ~640.00 kbps avg | русский | Blu-ray RUS
Аудио: DTS, 48 kHz, 6 ch, ~1510.00 kbps avg | русский | Blu-ray RUS
Субтитры: Отсутствуют

Релиз:

x264 [info]: frame I:1217 Avg QP:13.85 size:216006
x264 [info]: frame P:39259 Avg QP:16.75 size: 82451
x264 [info]: frame B:124363 Avg QP:17.32 size: 31061
x264 [info]: consecutive B-frames: 2.6% 3.8% 11.1% 30.6% 16.5% 24.5% 4.6% 2.1% 0.5% 0.7% 0.3% 0.8% 1.7%
**********************************************

Общее
Уникальный идентификатор : 202722300906739571640979644491921745605 (0x9882E51CD4140958B21C3BCF7709E6C5)
Полное имя : El.robo.del.siglo.2020.1080p.RUS.BDRip.DTS5.1.x264.MegaPeer.mkv
Формат : Matroska
Версия формата : Version 4
Размер файла : 8,58 Гбайт
Продолжительность : 1 ч. 54 м.
Общий поток : 10,7 Мбит/сек
Название фильма : Афера века / El robo del siglo (2020) от MegaPeer
Дата кодирования : UTC 2021-06-02 04:51:07
Программа кодирования : mkvmerge v47.0.0 ('Black Flag') 64-bit
Библиотека кодирования : libebml v1.3.10 + libmatroska v1.5.2
Обложка : Yes
Attachments : cover.jpg

Видео
Идентификатор : 1
Формат : AVC
Формат/Информация : Advanced Video Codec
Профиль формата : [email protected]
Настройки формата : CABAC / 5 Ref Frames
Параметр CABAC формата : Да
Параметр RefFrames формата : 5 кадров
Идентификатор кодека : V_MPEG4/ISO/AVC
Продолжительность : 1 ч. 54 м.
Битрейт : 8 575 Кбит/сек
Ширина : 1 920 пикселей
Высота : 804 пикселя
Соотношение сторон : 2,40:1
Режим частоты кадров : Постоянный
Частота кадров : 24,000 кадра/сек
Цветовое пространство : YUV
Субдискретизация насыщенности : 4:2:0
Битовая глубина : 8 бит
Тип развёртки : Прогрессивная
Бит/(Пиксели*Кадры) : 0.231
Размер потока : 6,86 Гбайт (80%)
Заголовок : [email protected]
Библиотека кодирования : x264 core 161 r3018 db0d417
Настройки программы : cabac=1 / ref=5 / deblock=1:-3:-3 / analyse=0x3:0x113 / me=umh / subme=11 / psy=1 / psy_rd=1.00:0.00 / mixed_ref=1 / me_range=48 / chroma_me=1 / trellis=2 / 8x8dct=1 / cqm=0 / deadzone=21,11 / fast_pskip=0 / chroma_qp_offset=-2 / threads=24 / lookahead_threads=6 / sliced_threads=0 / nr=0 / decimate=0 / interlaced=0 / bluray_compat=0 / constrained_intra=0 / bframes=12 / b_pyramid=2 / b_adapt=2 / b_bias=0 / direct=3 / weightb=1 / open_gop=0 / weightp=2 / keyint=240 / keyint_min=24 / scenecut=40 / intra_refresh=0 / rc_lookahead=40 / rc=2pass / mbtree=0 / bitrate=8575 / ratetol=1.0 / qcomp=0.60 / qpmin=0 / qpmax=69 / qpstep=4 / cplxblur=20.0 / qblur=0.5 / vbv_maxrate=50000 / vbv_bufsize=62500 / nal_hrd=none / filler=0 / ip_ratio=1.40 / pb_ratio=1.30 / aq=1:1.10
Язык : Russian
Default : Да
Forced : Нет

Аудио #1
Идентификатор : 2
Формат : AC-3
Формат/Информация : Audio Coding 3
Коммерческое название : Dolby Digital
Идентификатор кодека : A_AC3
Продолжительность : 1 ч. 54 м.
Вид битрейта : Постоянный
Битрейт : 640 Кбит/сек
Каналы : 6 каналов
Channel layout : L R C LFE Ls Rs
Частота : 48,0 КГц
Частота кадров : 31,250 кадров/сек (1536 SPF)
Метод сжатия : С потерями
Размер потока : 524 Мбайт (6%)
Заголовок : Blu-ray RUS
Язык : Russian
Service kind : Complete Main
Default : Да
Forced : Нет

Аудио #2
Идентификатор : 3
Формат : DTS
Формат/Информация : Digital Theater Systems
Идентификатор кодека : A_DTS
Продолжительность : 1 ч. 54 м.
Вид битрейта : Постоянный
Битрейт : 1 510 Кбит/сек
Каналы : 6 каналов
Channel layout : C L R Ls Rs LFE
Частота : 48,0 КГц
Частота кадров : 93,750 кадра/сек (512 SPF)
Битовая глубина : 24 бит
Метод сжатия : С потерями
Размер потока : 1,21 Гбайт (14%)
Заголовок : Blu-ray RUS
Язык : Russian
Default : Нет
Forced : Нет

Меню
00:00:00.000 : :rus: 01
00:01:27.082 : :rus: 02
00:10:30.791 : :rus: 03
00:23:07.000 : :rus: 04
00:33:40.833 : :rus: 05
00:43:54.458 : :rus: 06
00:53:58.250 : :rus: 07
01:04:17.666 : :rus: 08
01:17:30.750 : :rus: 09
01:29:01.375 : :rus: 10
01:41:12.875 : :rus: 11

Download
Для скачивания .torrent файлов необходима регистрация
Сайт не распространяет и не хранит электронные версии произведений, а лишь предоставляет доступ к создаваемому пользователями каталогу ссылок на торрент-файлы, которые содержат только списки хеш-сумм

Страница 1 из 1

Ответить на тему

   Похожие торренты   Торрент 




tracker_crontracker_cron