Регистрация ·  Логин: Пароль: Запомнить   · Забыли пароль?




Ответить на тему
Статистика раздачи
Размер: 1.84 ГБ | Зарегистрирован: 01 июн 2021, 15:37 | .torrent скачан: 0 раз(а), DHT: [ 0 ] раз(а)
Сидеров: [ 0  | 0 байт/сек ]   Личеров: [ 0  | 0 байт/сек ]   DHT: [ 0 / 0 ]
Автор Сообщение

Модератор

С нами: 2 года 3 месяца
Сообщения: 3142
Россия

Сообщение 01 июн 2021, 15:37 

[Цитировать]

Девушка / Girl
«»

Год выпуска: 2020
Страна: США
Жанр: триллер
Продолжительность: 01:29:53
Перевод: Дублированный [iTunes]
Субтитры: Русские (Forced, Full), английские (Full, SDH)

В ролях: Белла Торн, Микки Рурк, Tia Lavallee, Emma-Leigh Cullum, Элизабет Браун, Мики Липка, Чэд Фауст, Паоло Манчини, Ланетт Уэр, Глен Гулд, ...

Режиссёр: Чэд Фауст


История о том, как тяжело в деревне без топора. Девушка возвращается в родную глухомань, чтобы прикончить папашу, который испортил ей не только детство, но взрослую жизнь. Но по прибытии выясняется, что его уже кто-то убил. Пытаясь разобраться в случившемся, девушка вступает в противостояние с местными.

Качество: WEB-DLRip-AVС (Исходник: WEB-DL 1080p) AMAZON
Формат: MKV
Видео кодек: MPEG-4 AVC
Аудио кодек: AC-3
Видео: MPEG-4 AVC, 1040x432, (2,40:1), 2100 Кбит/сек, 23,976 fps, 0.195 bit/pix
Аудио1: AC-3, 6 ch, 384 Kbps, 48,0 KHz [RUS]
Аудио2: AC-3, 6 ch, 484 Kbps, 48,0 KHz [ENG]

Навигация по главам: Нет.

Релиз от: | Рип от: |

       

Премьера в мире
25 сентября 2020, ...


Код:
x264 [info]: frame I:877   Avg QP:14.09  size: 63941
x264 [info]: frame P:27050 Avg QP:16.60  size: 22229
x264 [info]: frame B:101310 Avg QP:18.73  size:  7437
----------------------------------------------------------------------------------------------------------------------------------------
Общее
Уникальный идентификатор                 : 109379099755443423806208256748128087181 (0x5249A5FA534E692DA41492072878AC8D)
Полное имя                               : F:\RIP\Girl.2020.iT.WEB-DLRip-AVC.Cherepah & R.G. RustorRipper's.mkv
Формат                                   : Matroska
Версия формата                           : Version 4
Размер файла                             : 1,84 Гбайт
Продолжительность                        : 1 ч. 29 м.
Общий поток                              : 2927 Кбит/сек
Название фильма                          : Girl 2020 from R.G. RustorRipper's
Дата кодирования                         : UTC 2021-06-01 09:49:01
Программа кодирования                    : mkvmerge v43.0.0 ('The Quartermaster') 64-bit
Библиотека кодирования                   : libebml v1.3.10 + libmatroska v1.5.2

Видео
Идентификатор                            : 1
Формат                                   : AVC
Формат/Информация                        : Advanced Video Codec
Профиль формата                          : [email protected]
Настройки формата                        : CABAC / 10 Ref Frames
Параметр CABAC формата                   : Да
Параметр RefFrames формата               : 10 кадров
Идентификатор кодека                     : V_MPEG4/ISO/AVC
Продолжительность                        : 1 ч. 29 м.
Битрейт                                  : 2100 Кбит/сек
Ширина                                   : 1040 пикселей
Высота                                   : 432 пикселя
Соотношение сторон                       : 2,40:1
Режим частоты кадров                     : Постоянный
Частота кадров                           : 23,976 (24000/1001) кадра/сек
Цветовое пространство                    : YUV
Субдискретизация насыщенности            : 4:2:0
Битовая глубина                          : 8 бит
Тип развёртки                            : Прогрессивная
Бит/(Пиксели*Кадры)                      : 0.195
Размер потока                            : 1,31 Гбайт (72%)
Заголовок                                : Girl.2020.iT.WEB-DLRip-AVC.Cherepah & R.G. RustorRipper's.mkv
Библиотека кодирования                   : x264 core 146 r2538 121396c
Настройки программы                      : cabac=1 / ref=10 / deblock=1:-2:-1 / analyse=0x3:0x133 / me=umh / subme=10 / psy=1 / psy_rd=1.00:0.15 / mixed_ref=1 / me_range=32 / chroma_me=1 / trellis=2 / 8x8dct=1 / cqm=0 / deadzone=21,11 / fast_pskip=0 / chroma_qp_offset=-3 / threads=24 / lookahead_threads=3 / sliced_threads=0 / nr=0 / decimate=1 / interlaced=0 / bluray_compat=0 / constrained_intra=0 / bframes=10 / b_pyramid=2 / b_adapt=2 / b_bias=0 / direct=1 / weightb=1 / open_gop=0 / weightp=2 / keyint=250 / keyint_min=23 / scenecut=40 / intra_refresh=0 / rc=2pass / mbtree=0 / bitrate=2100 / ratetol=1.0 / qcomp=0.60 / qpmin=0 / qpmax=69 / qpstep=4 / cplxblur=20.0 / qblur=0.5 / ip_ratio=1.40 / pb_ratio=1.30 / aq=2:1.00
Язык                                     : English
Default                                  : Да
Forced                                   : Нет
Цветовой диапазон                        : Limited
Основные цвета                           : BT.709
Характеристики трансфера                 : BT.709
Коэффициенты матрицы                     : BT.709

Аудио #1
Идентификатор                            : 2
Формат                                   : AC-3
Формат/Информация                        : Audio Coding 3
Коммерческое название                    : Dolby Digital
Идентификатор кодека                     : A_AC3
Продолжительность                        : 1 ч. 29 м.
Вид битрейта                             : Постоянный
Битрейт                                  : 384 Кбит/сек
Каналы                                   : 6 каналов
ChannelLayout                            : L R C LFE Ls Rs
Частота                                  : 48,0 КГц
Частота кадров                           : 31,250 кадров/сек (1536 SPF)
Метод сжатия                             : С потерями
Размер потока                            : 247 Мбайт (13%)
Заголовок                                : DUB I iTunes
Язык                                     : Russian
ServiceKind/String                       : Complete Main
Default                                  : Да
Forced                                   : Нет

Аудио #2
Идентификатор                            : 3
Формат                                   : AC-3
Формат/Информация                        : Audio Coding 3
Коммерческое название                    : Dolby Digital
Идентификатор кодека                     : A_AC3
Продолжительность                        : 1 ч. 29 м.
Вид битрейта                             : Постоянный
Битрейт                                  : 448 Кбит/сек
Каналы                                   : 6 каналов
ChannelLayout                            : L R C LFE Ls Rs
Частота                                  : 48,0 КГц
Частота кадров                           : 31,250 кадров/сек (1536 SPF)
Метод сжатия                             : С потерями
Размер потока                            : 288 Мбайт (15%)
Язык                                     : English
ServiceKind/String                       : Complete Main
Default                                  : Нет
Forced                                   : Нет

Текст #1
Идентификатор                            : 4
Формат                                   : UTF-8
Идентификатор кодека                     : S_TEXT/UTF8
Идентификатор кодека/Информация          : UTF-8 Plain Text
Продолжительность                        : 42 м. 41 с.
Битрейт                                  : 1 бит/сек
ElementCount                             : 15
Размер потока                            : 457 байт (0%)
Заголовок                                : Forced
Язык                                     : Russian
Default                                  : Да
Forced                                   : Нет

Текст #2
Идентификатор                            : 5
Формат                                   : UTF-8
Идентификатор кодека                     : S_TEXT/UTF8
Идентификатор кодека/Информация          : UTF-8 Plain Text
Продолжительность                        : 1 ч. 25 м.
Битрейт                                  : 51 бит/сек
ElementCount                             : 646
Размер потока                            : 32,3 Кбайт (0%)
Заголовок                                : Full
Язык                                     : Russian
Default                                  : Нет
Forced                                   : Нет

Текст #3
Идентификатор                            : 6
Формат                                   : UTF-8
Идентификатор кодека                     : S_TEXT/UTF8
Идентификатор кодека/Информация          : UTF-8 Plain Text
Продолжительность                        : 1 ч. 24 м.
Битрейт                                  : 33 бит/сек
ElementCount                             : 787
Размер потока                            : 21,0 Кбайт (0%)
Заголовок                                : Full
Язык                                     : English
Default                                  : Нет
Forced                                   : Нет

Текст #4
Идентификатор                            : 7
Формат                                   : UTF-8
Идентификатор кодека                     : S_TEXT/UTF8
Идентификатор кодека/Информация          : UTF-8 Plain Text
Продолжительность                        : 1 ч. 26 м.
Битрейт                                  : 43 бит/сек
ElementCount                             : 1146
Размер потока                            : 27,5 Кбайт (0%)
Заголовок                                : SDH
Язык                                     : English
Default                                  : Нет
Forced                                   : Нет


[youtube]CigA17cKUyY[/youtube]





Download
Для скачивания .torrent файлов необходима регистрация
Сайт не распространяет и не хранит электронные версии произведений, а лишь предоставляет доступ к создаваемому пользователями каталогу ссылок на торрент-файлы, которые содержат только списки хеш-сумм

Страница 1 из 1

Ответить на тему

   Похожие торренты   Торрент 




tracker_crontracker_cron