Регистрация ·  Логин: Пароль: Запомнить   · Забыли пароль?




Ответить на тему
Статистика раздачи
Размер: 6.02 ГБ | Зарегистрирован: 01 июн 2021, 15:36 | .torrent скачан: 0 раз(а), DHT: [ 0 ] раз(а)
Сидеров: [ 0  | 0 байт/сек ]   Личеров: [ 0  | 0 байт/сек ]   DHT: [ 0 / 0 ]
Автор Сообщение

Модератор

С нами: 2 года 3 месяца
Сообщения: 3202
Россия

Сообщение 01 июн 2021, 15:36 

[Цитировать]


Рыцари справедливости / Retfaerdighedens ryttere

Год выпуска: 2021
Страна: Дания
Жанр: Боевик, драма, комедия
Продолжительность: 01:56:10
Перевод: Профессиональный (полное дублирование) | iTunes
Субтитры: Русские (full), английские

В ролях: Мадс Миккельсен, Николай Ли Каас, Роланд Мёллер, Николас Бро, Густав Линд, Ларс Брюгманн, Альберт Рудбек Линдхардт, Йеспер Оле Фейт Андерсен, Мортен Суурбалле, Якоб Ульрик Ломанн
Режиссёр: Андерс Томас Йенсен

Описание: Когда жена Маркуса трагически погибает в железнодорожной катастрофе, это кажется нелепой случайностью. А если это тщательно спланированное убийство? Военный, сумасшедший математик и парочка гиков объединяются, чтобы выяснить, что случилось на самом деле. Теперь они — Рыцари справедливости.

Качество: WEB-DL 1080p
Формат: MKV
Видео кодек: AVC
Аудио кодек: AC3 , E-AC3
Видео: AVC, 1920x800 (2.40:1), 6391 kbps (0.174 b/px), 23. 976 fps
Аудио#1: AC3, 384 kbps (CBR), 48.0 KHz (16 bits), 6ch, Russian
Аудио#2: E-AC3, 640 kbps (CBR), 48.0 KHz , 6 ch, Danish

General
Unique ID : 187421070311147852625804814167946816486 (0x8CFFFC32EE275992A03C15FE214FEBE6)
Complete name : F:Riders.of.Justice.2020.AMZN.WEB-DL.1080p.ExKinoRay.mkv
Format : Matroska
Format version : Version 4
File size : 6.02 GiB
Duration : 1 h 56 min
Overall bit rate : 7 418 kb/s
Movie name : Riders of Justice 2020 from ExKinoRay
Encoded date : UTC 2021-05-26 23:17:32
Writing application : mkvmerge v7.3.0 ('Nouages') 64bit built on Oct 22 2014 18:53:34
Writing library : libebml v1.3.0 + libmatroska v1.4.1

Video
ID : 1
Format : AVC
Format/Info : Advanced Video Codec
Format profile : [email protected]
Format settings : CABAC / 4 Ref Frames
Format settings, CABAC : Yes
Format settings, Reference : 4 frames
Codec ID : V_MPEG4/ISO/AVC
Duration : 1 h 56 min
Bit rate mode : Constant
Bit rate : 6 391 kb/s
Nominal bit rate : 10 000 kb/s
Width : 1 920 pixels
Height : 800 pixels
Display aspect ratio : 2.40:1
Frame rate mode : Constant
Frame rate : 23.976 (24000/1001) FPS
Color space : YUV
Chroma subsampling : 4:2:0
Bit depth : 8 bits
Scan type : Progressive
Bits/(Pixel*Frame) : 0.174
Stream size : 5.19 GiB (86%)
Language : English
Default : Yes
Forced : No
Color range : Limited
Color primaries : BT.709
Transfer characteristics : BT.709
Matrix coefficients : BT.709

Audio #1
ID : 2
Format : AC-3
Format/Info : Audio Coding 3
Commercial name : Dolby Digital
Codec ID : A_AC3
Duration : 1 h 56 min
Bit rate mode : Constant
Bit rate : 384 kb/s
Channel(s) : 6 channels
Channel layout : L R C LFE Ls Rs
Sampling rate : 48.0 kHz
Frame rate : 31.250 FPS (1536 SPF)
Compression mode : Lossy
Stream size : 319 MiB (5%)
Title : Dub (iTunes)
Language : Russian
Service kind : Complete Main
Default : Yes
Forced : No

Audio #2
ID : 3
Format : E-AC-3
Format/Info : Enhanced AC-3
Commercial name : Dolby Digital Plus
Codec ID : A_EAC3
Duration : 1 h 56 min
Bit rate mode : Constant
Bit rate : 640 kb/s
Channel(s) : 6 channels
Channel layout : L R C LFE Ls Rs
Sampling rate : 48.0 kHz
Frame rate : 31.250 FPS (1536 SPF)
Compression mode : Lossy
Stream size : 532 MiB (9%)
Language : Danish
Service kind : Complete Main
Default : No
Forced : No

Text #1
ID : 4
Format : UTF-8
Codec ID : S_TEXT/UTF8
Codec ID/Info : UTF-8 Plain Text
Duration : 1 h 52 min
Bit rate : 92 b/s
Count of elements : 1707
Stream size : 76.1 KiB (0%)
Title : Full
Language : Russian
Default : No
Forced : No

Text #2
ID : 5
Format : UTF-8
Codec ID : S_TEXT/UTF8
Codec ID/Info : UTF-8 Plain Text
Duration : 1 h 45 min
Bit rate : 0 b/s
Count of elements : 9
Stream size : 114 Bytes (0%)
Title : Full
Language : English
Default : No
Forced : No

Text #3
ID : 6
Format : UTF-8
Codec ID : S_TEXT/UTF8
Codec ID/Info : UTF-8 Plain Text
Duration : 1 h 53 min
Bit rate : 4 b/s
Count of elements : 297
Stream size : 4.05 KiB (0%)
Title : SDH
Language : English
Default : No
Forced : No

ЗАМЕНА На iTunes

Download
Для скачивания .torrent файлов необходима регистрация
Сайт не распространяет и не хранит электронные версии произведений, а лишь предоставляет доступ к создаваемому пользователями каталогу ссылок на торрент-файлы, которые содержат только списки хеш-сумм

Страница 1 из 1

Ответить на тему

   Похожие торренты   Торрент 




tracker_crontracker_cron