Регистрация ·  Логин: Пароль: Запомнить   · Забыли пароль?




Ответить на тему
Статистика раздачи
Размер: 8.57 ГБ | Зарегистрирован: 01 июн 2021, 13:22 | .torrent скачан: 0 раз(а), DHT: [ 819 ] раз(а)
Сидеров: [ 65  | 0 байт/сек ]   Личеров: [ 10  | 0 байт/сек ]   DHT: [ 65 / 10 ]
Автор Сообщение

Модератор

С нами: 2 года 3 месяца
Сообщения: 3142
Россия

Сообщение 01 июн 2021, 13:22 

[Цитировать]

Информация о фильме
Название: Вирус страха / Перед пожаром
Оригинальное название: Before the Fire
Год выхода: 2020
Жанр: Триллер, фантастика, боевик
Режиссер: Чарли Бюхлер
В ролях: Дженна Линг, Джексон Дэвис, Райан Виджилант, Чарльз Хаббелл, Дакота Моррисей, Тим Дрисколл, М.Дж. Карми, Лиза Гудман, Джон Тэг, Мэри Бейдлер Гарен, Эндрю Марксман, Мартин Мика

О фильме: Пандемия неизвестного вируса парализует жизнь страны. Крупные города закрыты на карантин, передвижение между населенными пунктами строго регламентируется. Известная актриса принимает не легкое решение покинуть мегаполис и вернуться в родной провинциальный городок к семье, которая ее ненавидит. Шум большого города сменяется на тишину захолустья с его размеренным ритмом жизни. Но угроза для Авы приходит не со стороны вируса, а из прошлого, возвращая в ее жизнь человека, который пытается разрушить ее мир.



Выпущено: США / Madfire
Продолжительность: 01:30:43
Озвучивание: Дублированное | IVI

Файл
Формат: MKV
Качество: BDRip 1080p
Видео: MPEG-4 AVC, 12.5 Mb/s, 1920x820
Аудио #1: Russian: 48 kHz, AC3 Dolby Digital, 3/2 (L, C, R, l, r) + LFE ch, ~384 Kbps | DUB | IVI
Аудио #2: English: 48 kHz, AC3 Dolby Digital, 3/2 (L, C, R, l, r) + LFE ch, ~640 Kbps | Original
Субтитры: English
Дополнительно: Сохранены оригинальные чаптеры.

Релиз группы: &

Complete name: Virus.straha.2020.1080p.BluRay.ELEKTRI4KA.UNIONGANG.mkv
Format: Matroska
Format version: Version 4
File size: 8.57 GiB
Duration: 1 h 30 min
Overall bit rate: 13.5 Mb/s
Movie name: Virus.straha.2020.1080p.BluRay.ELEKTRI4KA.UNIONGANG.
Encoded date: UTC 2021-05-22 03:27:36
Writing application: mkvmerge v8.3.0 ('Over the Horizon') 64bit
Writing library: libebml v1.3.1 + libmatroska v1.4.2

Video
ID: 1
Format: AVC
Format/Info: Advanced Video Codec
Format profile: [email protected]
Format settings: CABAC / 5 Ref Frames
Format settings, CABAC: Yes
Format settings, Reference frames: 5 frames
Codec ID: V_MPEG4/ISO/AVC
Duration: 1 h 30 min
Bit rate: 12.5 Mb/s
Width: 1 920 pixels
Height: 820 pixels
Display aspect ratio: 2.35:1
Frame rate mode: Constant
Frame rate: 23.976 (24000/1001) FPS
Color space: YUV
Chroma subsampling: 4:2:0
Bit depth: 8 bits
Scan type: Progressive
Bits/(Pixel*Frame): 0.331
Stream size: 7.92 GiB (92%)
Title: Rip from Fishe
Writing library: x264 core 157 r2958 57baac4
Encoding settings: cabac=1 / ref=5 / deblock=1:-3:-3 / analyse=0x3:0x113 / me=umh / subme=10 / psy=1 / psy_rd=1.00:0.00 / mixed_ref=1 / me_range=32 / chroma_me=1 / trellis=2 / 8x8dct=1 / cqm=0 / deadzone=21, 11 / fast_pskip=0 / chroma_qp_offset=-2 / threads=49 / lookahead_threads=6 / sliced_threads=0 / nr=0 / decimate=0 / interlaced=0 / bluray_compat=0 / constrained_intra=0 / bframes=8 / b_pyramid=2 / b_adapt=2 / b_bias=0 / direct=3 / weightb=0 / open_gop=0 / weightp=2 / keyint=240 / keyint_min=24 / scenecut=40 / intra_refresh=0 / rc=2pass / mbtree=0 / bitrate=12500 / ratetol=1.0 / qcomp=0.60 / qpmin=0 / qpmax=69 / qpstep=4 / cplxblur=20.0 / qblur=0.5 / ip_ratio=1.40 / pb_ratio=1.30 / aq=1:1.00
Language: English
Default: Yes
Forced: No
Color range: Limited
Color primaries: BT.709
Transfer characteristics: BT.709
Matrix coefficients: BT.709

Audio #1
ID: 2
Format: AC-3
Format/Info: Audio Coding 3
Commercial name: Dolby Digital
Codec ID: A_AC3
Duration: 1 h 30 min
Bit rate mode: Constant
Bit rate: 384 kb/s
Channel(s): 6 channels
Channel layout: L R C LFE Ls Rs
Sampling rate: 48.0 kHz
Frame rate: 31.250 FPS (1536 SPF)
Compression mode: Lossy
Stream size: 249 MiB (3%)
Title: DUB (IVI)
Language: Russian
Service kind: Complete Main
Default: Yes
Forced: Yes

Audio #2
ID: 3
Format: AC-3
Format/Info: Audio Coding 3
Commercial name: Dolby Digital
Codec ID: A_AC3
Duration: 1 h 30 min
Bit rate mode: Constant
Bit rate: 640 kb/s
Channel(s): 6 channels
Channel layout: L R C LFE Ls Rs
Sampling rate: 48.0 kHz
Frame rate: 31.250 FPS (1536 SPF)
Compression mode: Lossy
Stream size: 415 MiB (5%)
Title: Original
Language: English
Service kind: Complete Main
Default: No
Forced: No

Text
ID: 4
Format: UTF-8
Codec ID: S_TEXT/UTF8
Codec ID/Info: UTF-8 Plain Text
Duration: 1 h 26 min
Bit rate: 34 b/s
Count of elements: 943
Stream size: 22.2 KiB (0%)
Title: Full
Language: English
Default: Yes
Forced: No

Menu
00:00:00.000: :Chapter 01
00:02:42.662: :Chapter 02
00:06:46.614: :Chapter 03
00:12:26.704: :Chapter 04
00:16:52.177: :Chapter 05
00:20:33.857: :Chapter 06
00:24:35.557: :Chapter 07
00:29:38.985: :Chapter 08
00:34:29.817: :Chapter 09
00:38:11.747: :Chapter 10
00:42:18.410: :Chapter 11
00:46:16.690: :Chapter 12
00:49:33.136: :Chapter 13
00:53:23.116: :Chapter 14
00:58:24.834: :Chapter 15
01:02:29.370: :Chapter 16
01:07:17.450: :Chapter 17
01:11:10.224: :Chapter 18
01:15:53.757: :Chapter 19
01:19:59.920: :Chapter 20
01:23:08.650: :Chapter 21
01:26:31.144: :Chapter 22

Download
Для скачивания .torrent файлов необходима регистрация
Сайт не распространяет и не хранит электронные версии произведений, а лишь предоставляет доступ к создаваемому пользователями каталогу ссылок на торрент-файлы, которые содержат только списки хеш-сумм

Страница 1 из 1

Ответить на тему

   Похожие торренты   Торрент 




tracker_crontracker_cron