Регистрация ·  Логин: Пароль: Запомнить   · Забыли пароль?




Ответить на тему
Статистика раздачи
Размер: 16.66 ГБ | Зарегистрирован: 01 июн 2021, 13:22 | .torrent скачан: 0 раз(а), DHT: [ 30 ] раз(а)
Сидеров: [ 18  | 0 байт/сек ]   Личеров: [ 1  | 0 байт/сек ]   DHT: [ 18 / 1 ]
Автор Сообщение

Модератор

С нами: 2 года 3 месяца
Сообщения: 3202
Россия

Сообщение 01 июн 2021, 13:22 

[Цитировать]

Информация о фильме
Название: Вирус страха / Перед пожаром
Оригинальное название: Before the Fire
Год выхода: 2020
Жанр: Триллер, фантастика, боевик
Режиссер: Чарли Бюхлер
В ролях: Дженна Линг, Джексон Дэвис, Райан Виджилант, Чарльз Хаббелл, Дакота Моррисей, Тим Дрисколл, М.Дж. Карми, Лиза Гудман, Джон Тэг, Мэри Бейдлер Гарен, Эндрю Марксман, Мартин Мика

О фильме: Пандемия неизвестного вируса парализует жизнь страны. Крупные города закрыты на карантин, передвижение между населенными пунктами строго регламентируется. Известная актриса принимает не легкое решение покинуть мегаполис и вернуться в родной провинциальный городок к семье, которая ее ненавидит. Шум большого города сменяется на тишину захолустья с его размеренным ритмом жизни. Но угроза для Авы приходит не со стороны вируса, а из прошлого, возвращая в ее жизнь человека, который пытается разрушить ее мир.



Выпущено: США / Madfire
Продолжительность: 01:30:43
Озвучивание: Дублированное | IVI

Файл
Формат: MKV
Качество: BDRemux 1080p
Видео: MPEG-4 AVC, 23.9 Mb/s, 1920x1080
Аудио #1: Russian: 48 kHz, AC3 Dolby Digital, 3/2 (L, C, R, l, r) + LFE ch, ~384 Kbps | DUB | IVI
Аудио #2: English: 48 kHz, DTS-HD МА, 3/2 (L, C, R, l, r) + LFE ch, ~1974 Kbps | Original
Субтитры: English
Дополнительно: Сохранены оригинальные чаптеры.

Релиз группы: &

Complete name : Virus.straha.2020.BDREMUX.1080p.ELEKTRI4KA.UNIONGANG.mkv
Format : Matroska
Format version : Version 4
File size : 16.7 GiB
Duration : 1 h 30 min
Overall bit rate mode : Variable
Overall bit rate : 26.3 Mb/s
Movie name : Virus.straha.2020.1080p.BDREMUX.1080p.ELEKTRI4KA.UNIONGANG.
Encoded date : UTC 2021-05-22 06:21:43
Writing application : mkvmerge v8.3.0 ('Over the Horizon') 64bit
Writing library : libebml v1.3.1 + libmatroska v1.4.2

Video
ID : 1
Format : AVC
Format/Info : Advanced Video Codec
Format profile : [email protected]
Format settings : CABAC / 4 Ref Frames
Format settings, CABAC : Yes
Format settings, Reference frames : 4 frames
Format settings, GOP : M=3, N=12
Codec ID : V_MPEG4/ISO/AVC
Duration : 1 h 30 min
Bit rate mode : Variable
Bit rate : 23.9 Mb/s
Maximum bit rate : 37.0 Mb/s
Width : 1 920 pixels
Height : 1 080 pixels
Display aspect ratio : 16:9
Frame rate mode : Constant
Frame rate : 23.976 (24000/1001) FPS
Color space : YUV
Chroma subsampling : 4:2:0
Bit depth : 8 bits
Scan type : Progressive
Bits/(Pixel*Frame) : 0.481
Stream size : 15.2 GiB (91%)
Language : English
Default : No
Forced : No
Color range : Limited
Color primaries : BT.709
Transfer characteristics : BT.709
Matrix coefficients : BT.709

Audio #1
ID : 2
Format : AC-3
Format/Info : Audio Coding 3
Commercial name : Dolby Digital
Codec ID : A_AC3
Duration : 1 h 30 min
Bit rate mode : Constant
Bit rate : 384 kb/s
Channel(s) : 6 channels
Channel layout : L R C LFE Ls Rs
Sampling rate : 48.0 kHz
Frame rate : 31.250 FPS (1536 SPF)
Compression mode : Lossy
Stream size : 249 MiB (1%)
Title : DUB (IVI)
Language : Russian
Service kind : Complete Main
Default : Yes
Forced : Yes

Audio #2
ID : 3
Format : DTS XLL
Format/Info : Digital Theater Systems
Commercial name : DTS-HD Master Audio
Codec ID : A_DTS
Duration : 1 h 30 min
Bit rate mode : Variable
Bit rate : 1 974 kb/s
Channel(s) : 6 channels
Channel layout : C L R Ls Rs LFE
Sampling rate : 48.0 kHz
Frame rate : 93.750 FPS (512 SPF)
Bit depth : 16 bits
Compression mode : Lossless
Stream size : 1.25 GiB (8%)
Title : Before.the.Fire.2020.1080p.BluRay.REMUX.AVC.DTS-HD.MA.5.1-FGT
Language : English
Default : No
Forced : No

Text
ID : 4
Format : UTF-8
Codec ID : S_TEXT/UTF8
Codec ID/Info : UTF-8 Plain Text
Duration : 1 h 26 min
Bit rate : 34 b/s
Count of elements : 943
Stream size : 22.2 KiB (0%)
Title : English
Language : English
Default : Yes
Forced : No

Menu
00:00:00.000 : en:Chapter 01
00:02:42.662 : en:Chapter 02
00:06:46.614 : en:Chapter 03
00:12:26.704 : en:Chapter 04
00:16:52.177 : en:Chapter 05
00:20:33.857 : en:Chapter 06
00:24:35.557 : en:Chapter 07
00:29:38.985 : en:Chapter 08
00:34:29.817 : en:Chapter 09
00:38:11.747 : en:Chapter 10
00:42:18.410 : en:Chapter 11
00:46:16.690 : en:Chapter 12
00:49:33.136 : en:Chapter 13
00:53:23.116 : en:Chapter 14
00:58:24.834 : en:Chapter 15
01:02:29.370 : en:Chapter 16
01:07:17.450 : en:Chapter 17
01:11:10.224 : en:Chapter 18
01:15:53.757 : en:Chapter 19
01:19:59.920 : en:Chapter 20
01:23:08.650 : en:Chapter 21
01:26:31.144 : en:Chapter 22

Download
Для скачивания .torrent файлов необходима регистрация
Сайт не распространяет и не хранит электронные версии произведений, а лишь предоставляет доступ к создаваемому пользователями каталогу ссылок на торрент-файлы, которые содержат только списки хеш-сумм

Страница 1 из 1

Ответить на тему

   Похожие торренты   Торрент