Регистрация ·  Логин: Пароль: Запомнить   · Забыли пароль?




Ответить на тему
Статистика раздачи
Размер: 9.06 ГБ | Зарегистрирован: 01 июн 2021, 13:18 | .torrent скачан: 0 раз(а), DHT: [ 832 ] раз(а)
Сидеров: [ 71  | 0 байт/сек ]   Личеров: [ 2  | 0 байт/сек ]   DHT: [ 71 / 2 ]
Автор Сообщение

Модератор

С нами: 2 года 3 месяца
Сообщения: 3202
Россия

Сообщение 01 июн 2021, 13:18 

[Цитировать]

Информация о фильме
Название: Мастер Z: Наследие Ип Мана
Оригинальное название: Ye wen wai zhuan: Zhang tian zhi / Master Z: Ip Man Legacy
Год выхода: 2018
Жанр: Боевик
Режиссер: Юэнь Ву-Пин
В ролях: Макс Чжан, Дэйв Батиста, Мишель Йео, Тони Джа, Крисси Чау, Кевин Чэн, Син Юй, Филип Кюн

О фильме:
После проигранного поединка Ип Ману, Чонг Тин Чи принимает решение закрыть академию боевых искусств, чтобы вести простую жизнь владельца маленького продуктового магазина. Но вскоре Чонг сталкивается с очередными неприятностями, когда спасает девушку от банды головорезов, которые подчиняются могущественному гангстеру Киту. Спустя некоторое время преступник начинает мстить, сжигая дом и магазин Тин Чи. Когда мастеру боевых искусств не удается мирным путем урегулировать конфликт, он решает вступить в открытое противостояние с Китом и его бандой...



Выпущено: Китай, Гонконг / Mandarin Motion Pictures
Продолжительность: 01:47:34
Озвучивание: Дублированное | iTunes

Файл
Формат: MKV
Качество: BDRip 1080p
Видео: MPEG-4 AVC, 11.0 Мb/s, 1920x858
Аудио #1: Russian: 48 kHz, AC3 Dolby Digital, 3/2 (L, C, R, l, r) + LFE ch, ~384 Kbps | DUB | iTunes
Аудио #2: Chinese: 48 kHz, AC3 Dolby Digital, 3/2 (L, C, R, l, r) + LFE ch, ~640 Kbps | Original
Субтитры: Russian (Full), English
Дополнительно: Сохранены оригинальные чаптеры.

Релиз группы: &

Complete name : Master.Z.Nasledie.Ip.Mana.2018.BDRip.1080p.ELEKTRI4KA.UNIONGANG.mkv
Format : Matroska
Format version : Version 4
File size : 9.06 GiB
Duration : 1 h 47 min
Overall bit rate : 12.1 Mb/s
Movie name : Master.Z.Nasledie.Ip.Mana.2018.BDRip.1080p.ELEKTRI4KA.UNIONGANG.
Encoded date : UTC 2021-05-19 22:39:56
Writing application : mkvmerge v8.3.0 ('Over the Horizon') 64bit
Writing library : libebml v1.3.1 + libmatroska v1.4.2

Video
ID : 1
Format : AVC
Format/Info : Advanced Video Codec
Format profile : [email protected]
Format settings : CABAC / 4 Ref Frames
Format settings, CABAC : Yes
Format settings, Reference frames : 4 frames
Codec ID : V_MPEG4/ISO/AVC
Duration : 1 h 47 min
Bit rate : 11.0 Mb/s
Width : 1 920 pixels
Height : 858 pixels
Display aspect ratio : 2.25:1
Frame rate mode : Constant
Frame rate : 24.000 FPS
Color space : YUV
Chroma subsampling : 4:2:0
Bit depth : 8 bits
Scan type : Progressive
Bits/(Pixel*Frame) : 0.279
Stream size : 8.29 GiB (91%)
Title : Master Z Ip Man Legacy 2018 from CHD
Writing library : x264 core 155 r2867+74 66b5600 t_mod_Custom_2 [[email protected] X86_64]
Encoding settings : cabac=1 / ref=4 / deblock=1:-3:-3 / analyse=0x3:0x133 / me=umh / subme=10 / psy=1 / fade_compensate=0.00 / psy_rd=0.95:0.10 / mixed_ref=1 / me_range=48 / chroma_me=1 / trellis=2 / 8x8dct=1 / cqm=0 / deadzone=21,11 / fast_pskip=0 / chroma_qp_offset=-4 / threads=18 / lookahead_threads=3 / sliced_threads=0 / nr=0 / decimate=1 / interlaced=0 / bluray_compat=0 / constrained_intra=0 / fgo=0 / bframes=8 / b_pyramid=2 / b_adapt=2 / b_bias=0 / direct=3 / weightb=1 / open_gop=0 / weightp=2 / keyint=250 / keyint_min=24 / scenecut=40 / intra_refresh=0 / rc_lookahead=60 / rc=crf / mbtree=0 / crf=19.0000 / qcomp=0.70 / qpmin=0:0:0 / qpmax=69:69:69 / qpstep=4 / vbv_maxrate=35000 / vbv_bufsize=35000 / crf_max=0.0 / nal_hrd=none / filler=0 / ip_ratio=1.40 / pb_ratio=1.30 / aq=3:1.00 / aq-sensitivity=10.00 / aq-factor=1.00:1.00:1.00 / aq2=0 / aq3=2:[0.50:0.50]:[0.50:0.50]:[0.50:0.50]:[0.50:0.50] / aq3-sensitivity=10.00 / aq3-factor=[1.00:1.00]:[1.00:1.00]:[1.00:1.00] / aq3-boundary=192:64:24
Language : Chinese
Default : Yes
Forced : No

Audio #1
ID : 2
Format : AC-3
Format/Info : Audio Coding 3
Commercial name : Dolby Digital
Codec ID : A_AC3
Duration : 1 h 47 min
Bit rate mode : Constant
Bit rate : 384 kb/s
Channel(s) : 6 channels
Channel layout : L R C LFE Ls Rs
Sampling rate : 48.0 kHz
Frame rate : 31.250 FPS (1536 SPF)
Compression mode : Lossy
Stream size : 295 MiB (3%)
Title : DUB (iTunes)
Language : Russian
Service kind : Complete Main
Default : Yes
Forced : Yes

Audio #2
ID : 3
Format : AC-3
Format/Info : Audio Coding 3
Commercial name : Dolby Digital
Codec ID : A_AC3
Duration : 1 h 47 min
Bit rate mode : Constant
Bit rate : 640 kb/s
Channel(s) : 6 channels
Channel layout : L R C LFE Ls Rs
Sampling rate : 48.0 kHz
Frame rate : 31.250 FPS (1536 SPF)
Compression mode : Lossy
Stream size : 492 MiB (5%)
Title : Original
Language : Chinese
Service kind : Complete Main
Default : No
Forced : No

Text #1
ID : 4
Format : UTF-8
Codec ID : S_TEXT/UTF8
Codec ID/Info : UTF-8 Plain Text
Duration : 1 h 44 min
Bit rate : 67 b/s
Count of elements : 1266
Stream size : 51.4 KiB (0%)
Title : Full (iTunes)
Language : Russian
Default : Yes
Forced : No

Text #2
ID : 5
Format : UTF-8
Codec ID : S_TEXT/UTF8
Codec ID/Info : UTF-8 Plain Text
Duration : 1 h 44 min
Bit rate : 36 b/s
Count of elements : 1293
Stream size : 28.1 KiB (0%)
Language : English
Default : No
Forced : No

Menu
00:00:00.000 : en:Chapter 01
00:05:47.000 : en:Chapter 02
00:11:29.833 : en:Chapter 03
00:15:46.375 : en:Chapter 04
00:19:10.416 : en:Chapter 05
00:28:58.583 : en:Chapter 06
00:33:33.250 : en:Chapter 07
00:38:34.416 : en:Chapter 08
00:48:14.708 : en:Chapter 09
00:53:38.833 : en:Chapter 10
01:00:10.041 : en:Chapter 11
01:04:38.458 : en:Chapter 12
01:09:35.583 : en:Chapter 13
01:19:20.500 : en:Chapter 14
01:22:55.916 : en:Chapter 15
01:27:42.750 : en:Chapter 16
01:34:36.541 : en:Chapter 17
01:42:54.666 : en:Chapter 18

Download
Для скачивания .torrent файлов необходима регистрация
Сайт не распространяет и не хранит электронные версии произведений, а лишь предоставляет доступ к создаваемому пользователями каталогу ссылок на торрент-файлы, которые содержат только списки хеш-сумм

Страница 1 из 1

Ответить на тему

   Похожие торренты   Торрент 




tracker_crontracker_cron