Регистрация ·  Логин: Пароль: Запомнить   · Забыли пароль?




Ответить на тему
Статистика раздачи
Размер: 15.51 ГБ | Зарегистрирован: 01 июн 2021, 13:17 | .torrent скачан: 0 раз(а), DHT: [ 135 ] раз(а)
Сидеров: [ 10  | 0 байт/сек ]   Личеров: [ 2  | 0 байт/сек ]   DHT: [ 10 / 2 ]
Автор Сообщение

Модератор

С нами: 2 года 3 месяца
Сообщения: 3142
Россия

Сообщение 01 июн 2021, 13:17 

[Цитировать]

Информация о фильме
Название: Я - возмездие / Мститель
Оригинальное название: Vengeance
Год выхода: 2018
Жанр: Боевик
Режиссер: Росс Бояск
В ролях: Стю Беннет, Флер Кит, Алан Калтон, Гэри Дэниелс, Кит Аллен, Уэйн Энтони Гордон, Анна Шаффер, Марк Гриффин, Брайан Ларкин, Себастьян Кнапп

О фильме: Когда-то солдат, а теперь наёмник Джон Голд узнаёт о гибели товарища и пытается разобраться, что случилось. Герой устанавливает, что убийство было составляющей большого заговора, и теперь ему потребуется ликвидировать виновных одного за другим.



Выпущено: Великобритания / Evolutionary Films, Plumcourt Films
Продолжительность: 01:32:48
Озвучивание: Профессиональное (многоголосое) | iTunes

Файл
Формат: MKV
Качество: BDRemux 1080p
Видео: MPEG-4 AVC, 22.0 Мb/s, 1920x1080
Аудио #1: Russian: 48 kHz, AC3 Dolby Digital, 3/2 (L, C, R, l, r) + LFE ch, ~384 Kbps | MVO | iTunes
Аудио #2: English: 48 kHz, DTS-HD Master Audio, 3/2 (L, C, R, l, r) + LFE ch, ~1523 Kbps | Original
Субтитры: Нет
Дополнительно: Сохранены оригинальные чаптеры.

Релиз группы: &

Complete name : Mstitel.2018.1080p.BDREMUX.ELEKTRI4KA.UNIONGANG.mkv
Format : Matroska
Format version : Version 4
File size : 15.5 GiB
Duration : 1 h 32 min
Overall bit rate mode : Variable
Overall bit rate : 23.9 Mb/s
Movie name : Mstitel.2018.1080p.BDREMUX.ELEKTRI4KA.UNIONGANG.
Encoded date : UTC 2021-05-16 17:29:08
Writing application : mkvmerge v8.3.0 ('Over the Horizon') 32bit
Writing library : libebml v1.3.1 + libmatroska v1.4.2

Video
ID : 1
Format : AVC
Format/Info : Advanced Video Codec
Format profile : [email protected]
Format settings : CABAC / 2 Ref Frames
Format settings, CABAC : Yes
Format settings, Reference frames : 2 frames
Codec ID : V_MPEG4/ISO/AVC
Duration : 1 h 32 min
Bit rate mode : Variable
Bit rate : 22.0 Mb/s
Maximum bit rate : 30.2 Mb/s
Width : 1 920 pixels
Height : 1 080 pixels
Display aspect ratio : 16:9
Frame rate mode : Constant
Frame rate : 24.000 FPS
Color space : YUV
Chroma subsampling : 4:2:0
Bit depth : 8 bits
Scan type : Progressive
Bits/(Pixel*Frame) : 0.442
Stream size : 14.3 GiB (92%)
Default : Yes
Forced : No

Audio #1
ID : 2
Format : AC-3
Format/Info : Audio Coding 3
Commercial name : Dolby Digital
Codec ID : A_AC3
Duration : 1 h 32 min
Bit rate mode : Constant
Bit rate : 384 kb/s
Channel(s) : 6 channels
Channel layout : L R C LFE Ls Rs
Sampling rate : 48.0 kHz
Frame rate : 31.250 FPS (1536 SPF)
Compression mode : Lossy
Stream size : 255 MiB (2%)
Title : MVO (iTunes)
Language : Russian
Service kind : Complete Main
Default : Yes
Forced : Yes

Audio #2
ID : 3
Format : DTS XLL
Format/Info : Digital Theater Systems
Commercial name : DTS-HD Master Audio
Codec ID : A_DTS
Duration : 1 h 32 min
Bit rate mode : Variable
Bit rate : 1 523 kb/s
Channel(s) : 6 channels
Channel layout : C L R Ls Rs LFE
Sampling rate : 48.0 kHz
Frame rate : 93.750 FPS (512 SPF)
Bit depth : 16 bits
Compression mode : Lossless
Stream size : 1 011 MiB (6%)
Title : Original
Language : English
Default : No
Forced : No

Menu
00:00:00.000 : :Vengeance.Man.2018
01:32:48.791 : :Vengeance.Man.2018

Download
Для скачивания .torrent файлов необходима регистрация
Сайт не распространяет и не хранит электронные версии произведений, а лишь предоставляет доступ к создаваемому пользователями каталогу ссылок на торрент-файлы, которые содержат только списки хеш-сумм

Страница 1 из 1

Ответить на тему

   Похожие торренты   Торрент 




tracker_crontracker_crontracker_cron