Регистрация ·  Логин: Пароль: Запомнить   · Забыли пароль?




Ответить на тему
Статистика раздачи
Размер: 20.39 ГБ | Зарегистрирован: 01 июн 2021, 13:17 | .torrent скачан: 0 раз(а), DHT: [ 20 ] раз(а)
Сидеров: [ 7  | 0 байт/сек ]   Личеров: [ 0  | 0 байт/сек ]   DHT: [ 7 / 0 ]
Автор Сообщение

Модератор

С нами: 2 года 3 месяца
Сообщения: 3202
Россия

Сообщение 01 июн 2021, 13:17 

[Цитировать]

Информация о фильме
Название: Кинотеатр кошмаров
Оригинальное название: Nightmare Cinema
Год выхода: 2018
Жанр: Ужасы
Режиссер: Алехандро Бругуес, Джо Данте, Мик Гэррис
В ролях: Микки Рурк, Сара Элизабет Уизерс, Фали Ракотохавана, Морис Бенард, Элизабет Ризер, Цара Малер, Марк Гроссман, Рене Мухика, Кевин Фонтейн, Крис Уоррен

О фильме: Случайные прохожие забредают в странный кинотеатр «Риальто», где каждому показывается фильм ужасов с собственным участием. А после просмотра бедолаг ждёт встреча с загадочным человеком, именующим себя Киномехаником.



Выпущено: США / Cinelou Films, Cranked Up Films, Good Deed Entertainment
Продолжительность: 01:59:08
Озвучивание: Дублированное | iTunes

Файл
Формат: MKV
Качество: BDRemux 1080p
Видео: MPEG-4 AVC, 19.8 Мb/s, 1920x1080
Аудио #1: Russian: 48 kHz, AC3 Dolby Digital, 3/2 (L, C, R, l, r) + LFE ch, ~384 Kbps | DUB | iTunes
Аудио #2: Ukrainian: 48 kHz, AC3 Dolby Digital, 3/2 (L, C, R, l, r) + LFE ch, ~384 Kbps | DUB | iTunes
Аудио #3: English: 48 kHz, DTS-HD MA, 3943 Kbps | Original
Субтитры: English
Дополнительно: Сохранены оригинальные чаптеры.

Релиз группы: &

Complete name : Kinoteatr.koshmarov.2018.1080p.BDREMUX.ELEKTRI4KA.UNIONGANG.mkv
Format : Matroska
Format version : Version 4
File size : 20.4 GiB
Duration : 1 h 59 min
Overall bit rate mode : Variable
Overall bit rate : 24.5 Mb/s
Movie name : Kinoteatr.koshmarov.2018.1080p.BDREMUX.ELEKTRI4KA.UNIONGANG.
Encoded date : UTC 2021-05-16 15:53:49
Writing application : mkvmerge v8.3.0 ('Over the Horizon') 32bit
Writing library : libebml v1.3.1 + libmatroska v1.4.2

Video
ID : 1
Format : AVC
Format/Info : Advanced Video Codec
Format profile : [email protected]
Format settings : CABAC / 4 Ref Frames
Format settings, CABAC : Yes
Format settings, Reference frames : 4 frames
Codec ID : V_MPEG4/ISO/AVC
Duration : 1 h 59 min
Bit rate mode : Variable
Bit rate : 19.8 Mb/s
Maximum bit rate : 36.0 Mb/s
Width : 1 920 pixels
Height : 1 080 pixels
Display aspect ratio : 16:9
Frame rate mode : Constant
Frame rate : 23.976 (24000/1001) FPS
Color space : YUV
Chroma subsampling : 4:2:0
Bit depth : 8 bits
Scan type : Progressive
Bits/(Pixel*Frame) : 0.398
Stream size : 16.5 GiB (81%)
Language : English
Default : Yes
Forced : No

Audio #1
ID : 2
Format : AC-3
Format/Info : Audio Coding 3
Commercial name : Dolby Digital
Codec ID : A_AC3
Duration : 1 h 59 min
Bit rate mode : Constant
Bit rate : 384 kb/s
Channel(s) : 6 channels
Channel layout : L R C LFE Ls Rs
Sampling rate : 48.0 kHz
Frame rate : 31.250 FPS (1536 SPF)
Compression mode : Lossy
Stream size : 327 MiB (2%)
Title : DUB (iTunes)
Language : Russian
Service kind : Complete Main
Default : Yes
Forced : Yes

Audio #2
ID : 3
Format : AC-3
Format/Info : Audio Coding 3
Commercial name : Dolby Digital
Codec ID : A_AC3
Duration : 1 h 59 min
Bit rate mode : Constant
Bit rate : 384 kb/s
Channel(s) : 6 channels
Channel layout : L R C LFE Ls Rs
Sampling rate : 48.0 kHz
Frame rate : 31.250 FPS (1536 SPF)
Compression mode : Lossy
Stream size : 327 MiB (2%)
Title : DUB (iTunes)
Language : Ukrainian
Service kind : Complete Main
Default : No
Forced : No

Audio #3
ID : 4
Format : DTS XLL
Format/Info : Digital Theater Systems
Commercial name : DTS-HD Master Audio
Codec ID : A_DTS
Duration : 1 h 59 min
Bit rate mode : Variable
Bit rate : 3 943 kb/s
Channel(s) : 6 channels
Channel layout : C L R Ls Rs LFE
Sampling rate : 48.0 kHz
Frame rate : 93.750 FPS (512 SPF)
Bit depth : 24 bits
Compression mode : Lossless
Stream size : 3.28 GiB (16%)
Title : DTS-HD Master Audio / 5.1 / 48 kHz / 3942 kbps / 24-bit
Language : English
Default : No
Forced : No

Text
ID : 5
Format : UTF-8
Codec ID : S_TEXT/UTF8
Codec ID/Info : UTF-8 Plain Text
Duration : 1 h 52 min
Bit rate : 29 b/s
Count of elements : 1074
Stream size : 24.7 KiB (0%)
Default : Yes
Forced : No

Menu
00:00:00.000 : en:Chapter 1
00:08:30.051 : en:Chapter 2
00:17:31.300 : en:Chapter 3
00:22:44.989 : en:Chapter 4
00:43:15.927 : en:Chapter 5
01:08:50.543 : en:Chapter 6
01:25:43.138 : en:Chapter 7
01:48:11.735 : en:Chapter 8
01:54:30.864 : en:Chapter 9


Download
Для скачивания .torrent файлов необходима регистрация
Сайт не распространяет и не хранит электронные версии произведений, а лишь предоставляет доступ к создаваемому пользователями каталогу ссылок на торрент-файлы, которые содержат только списки хеш-сумм

Страница 1 из 1

Ответить на тему

   Похожие торренты   Торрент 




tracker_crontracker_cron