Регистрация ·  Логин: Пароль: Запомнить   · Забыли пароль?




Ответить на тему
Статистика раздачи
Размер: 4.8 ГБ | Зарегистрирован: 01 июн 2021, 13:17 | .torrent скачан: 0 раз(а), DHT: [ 38 ] раз(а)
Сидеров: [ 39  | 0 байт/сек ]   Личеров: [ 4  | 0 байт/сек ]   DHT: [ 39 / 4 ]
Автор Сообщение

Модератор

С нами: 2 года 3 месяца
Сообщения: 3202
Россия

Сообщение 01 июн 2021, 13:17 

[Цитировать]

Информация о фильме
Название: В стране фей
Оригинальное название: Faunutland and the Lost Magic
Год выхода: 2020
Жанр: Фэнтези, семейный
Режиссер: Маркус Овнелль
В ролях: Типпер Сайферт-Кливлэнд, Харриет Слэйтер, Челси Эдж, Дженни Лампа, Карл Стьернлоф

О фильме: Эмили не верит в чудеса, но однажды она находит в домашней библиотеке сундук с таинственной книгой про страну Фей и внезапно оказывается в волшебном мире. Здесь девочка встречает множество невероятных существ: фею Найтинглар, огромного, мохнатого Белорака и злобную королеву. Но над страной Фей нависла угроза, и Эмили решает во что бы то ни стало помочь своим новым друзьям, отыскав сияющий кристалл, который, согласно легенде, вернет мир в чудесное королевство.



Выпущено: Швеция, Великобритания, США / Phelecan Films AB
Продолжительность: 01:25:36
Озвучивание: Дублированное | iTunes

Файл
Формат: MKV
Качество: BDRip 720p
Видео: MPEG-4 AVC, 7000 Kb/s, 1280x640
Аудио #1: Russian: 48 kHz, AC3 Dolby Digital, 3/2 (L, C, R, l, r) + LFE ch, ~384 Kbps | DUB | iTunes
Аудио #2: German: 48 kHz, AC3 Dolby Digital, 3/2 (L, C, R, l, r) + LFE ch, ~640 Kbps | Original
Субтитры: Нет
Дополнительно: Сохранены оригинальные чаптеры.

Релиз группы: &

Complete name: D:V.strane.fey.2020.BDRip.720p.ELEKTRI4KA.UNIONGANG.mkv
Format: Matroska
Format version: Version 4
File size: 4.80 GiB
Duration: 1 h 25 min
Overall bit rate: 8 025 kb/s
Movie name: V.strane.fey.2020.BDRip.720p.ELEKTRI4KA.UNIONGANG.
Encoded date: UTC 2021-05-15 09:05:12
Writing application: mkvmerge v8.3.0 ('Over the Horizon') 32bit
Writing library: libebml v1.3.1 + libmatroska v1.4.2

Video
ID: 1
Format: AVC
Format/Info: Advanced Video Codec
Format profile: [email protected]
Format settings: CABAC / 10 Ref Frames
Format settings, CABAC: Yes
Format settings, Reference frames: 10 frames
Codec ID: V_MPEG4/ISO/AVC
Duration: 1 h 25 min
Bit rate: 7 000 kb/s
Width: 1 280 pixels
Height: 640 pixels
Display aspect ratio: 2.000
Frame rate mode: Constant
Frame rate: 24.000 FPS
Color space: YUV
Chroma subsampling: 4:2:0
Bit depth: 8 bits
Scan type: Progressive
Bits/(Pixel*Frame): 0.356
Stream size: 4.19 GiB (87%)
Title: Rip from Fishe
Writing library: x264 core 157 r2958 57baac4
Encoding settings: cabac=1 / ref=10 / deblock=1:-3:-3 / analyse=0x3:0x133 / me=umh / subme=10 / psy=1 / psy_rd=1.00:0.00 / mixed_ref=1 / me_range=32 / chroma_me=1 / trellis=2 / 8x8dct=1 / cqm=0 / deadzone=21, 11 / fast_pskip=0 / chroma_qp_offset=-2 / threads=49 / lookahead_threads=5 / sliced_threads=0 / nr=0 / decimate=0 / interlaced=0 / bluray_compat=0 / constrained_intra=0 / bframes=8 / b_pyramid=2 / b_adapt=2 / b_bias=0 / direct=3 / weightb=0 / open_gop=0 / weightp=2 / keyint=240 / keyint_min=24 / scenecut=40 / intra_refresh=0 / rc=2pass / mbtree=0 / bitrate=7000 / ratetol=1.0 / qcomp=0.60 / qpmin=0 / qpmax=69 / qpstep=4 / cplxblur=20.0 / qblur=0.5 / ip_ratio=1.40 / pb_ratio=1.30 / aq=1:1.00
Default: Yes
Forced: No
Color range: Limited
Color primaries: BT.709
Transfer characteristics: BT.709
Matrix coefficients: BT.709
ENCODING_INFO: H264 > X264 VBR-2P 7000kbps Slower

Audio #1
ID: 2
Format: AC-3
Format/Info: Audio Coding 3
Commercial name: Dolby Digital
Codec ID: A_AC3
Duration: 1 h 25 min
Bit rate mode: Constant
Bit rate: 384 kb/s
Channel(s): 6 channels
Channel layout: L R C LFE Ls Rs
Sampling rate: 48.0 kHz
Frame rate: 31.250 FPS (1536 SPF)
Compression mode: Lossy
Stream size: 235 MiB (5%)
Title: DUB (iTunes)
Language: Russian
Service kind: Complete Main
Default: Yes
Forced: Yes

Audio #2
ID: 3
Format: AC-3
Format/Info: Audio Coding 3
Commercial name: Dolby Digital
Codec ID: A_AC3
Duration: 1 h 25 min
Bit rate mode: Constant
Bit rate: 640 kb/s
Channel(s): 6 channels
Channel layout: L R C LFE Ls Rs
Sampling rate: 48.0 kHz
Frame rate: 31.250 FPS (1536 SPF)
Compression mode: Lossy
Stream size: 392 MiB (8%)
Title: Original
Language: German
Service kind: Complete Main
Default: No
Forced: No

Menu
00:00:00.000: :Emily.und.der.vergessene.Zauber.2020.GERMAN.COMPLETE
01:25:35.872: :Emily.und.der.vergessene.Zauber.2020.GERMAN.COMPLETE

Download
Для скачивания .torrent файлов необходима регистрация
Сайт не распространяет и не хранит электронные версии произведений, а лишь предоставляет доступ к создаваемому пользователями каталогу ссылок на торрент-файлы, которые содержат только списки хеш-сумм

Страница 1 из 1

Ответить на тему

   Похожие торренты   Торрент 




tracker_crontracker_cron