Регистрация ·  Логин: Пароль: Запомнить   · Забыли пароль?




Ответить на тему
Статистика раздачи
Размер: 16.53 ГБ | Зарегистрирован: 01 июн 2021, 13:17 | .torrent скачан: 0 раз(а), DHT: [ 0 ] раз(а)
Сидеров: [ 0  | 0 байт/сек ]   Личеров: [ 0  | 0 байт/сек ]   DHT: [ 0 / 0 ]
Автор Сообщение

Модератор

С нами: 2 года 3 месяца
Сообщения: 3202
Россия

Сообщение 01 июн 2021, 13:17 

[Цитировать]

Информация о фильме
Название: В стране фей
Оригинальное название: Faunutland and the Lost Magic
Год выхода: 2020
Жанр: Фэнтези, семейный
Режиссер: Маркус Овнелль
В ролях: Типпер Сайферт-Кливлэнд, Харриет Слэйтер, Челси Эдж, Дженни Лампа, Карл Стьернлоф

О фильме: Эмили не верит в чудеса, но однажды она находит в домашней библиотеке сундук с таинственной книгой про страну Фей и внезапно оказывается в волшебном мире. Здесь девочка встречает множество невероятных существ: фею Найтинглар, огромного, мохнатого Белорака и злобную королеву. Но над страной Фей нависла угроза, и Эмили решает во что бы то ни стало помочь своим новым друзьям, отыскав сияющий кристалл, который, согласно легенде, вернет мир в чудесное королевство.



Выпущено: Швеция, Великобритания, США / Phelecan Films AB
Продолжительность: 01:25:36
Озвучивание: Дублированное | iTunes

Файл
Формат: MKV
Качество: BDRemux 1080p
Видео: MPEG-4 AVC, 25.2 Mb/s, 1920x1080
Аудио #1: Russian: 48 kHz, AC3 Dolby Digital, 3/2 (L, C, R, l, r) + LFE ch, ~384 Kbps | DUB | iTunes
Аудио #2: German: 48 kHz, DTS-HD Master Audio, 3/2 (L, C, R, l, r) + LFE ch, ~2102 Kbps | Original
Субтитры: Нет
Дополнительно: Сохранены оригинальные чаптеры.

Релиз группы: &

Complete name: V.strane.fey.2020.BDREMUX.1080p.ELEKTRI4KA.UNIONGANG.mkv
Format: Matroska
Format version: Version 4
File size: 16.5 GiB
Duration: 1 h 25 min
Overall bit rate mode: Variable
Overall bit rate: 27.7 Mb/s
Movie name: V.strane.fey.2020.BDRREMUX.1080p.ELEKTRI4KA.UNIONGANG.
Encoded date: UTC 2021-05-15 10:37:52
Writing application: mkvmerge v8.3.0 ('Over the Horizon') 32bit
Writing library: libebml v1.3.1 + libmatroska v1.4.2

Video
ID: 1
Format: AVC
Format/Info: Advanced Video Codec
Format profile: [email protected]
Format settings: CABAC / 4 Ref Frames
Format settings, CABAC: Yes
Format settings, Reference frames: 4 frames
Codec ID: V_MPEG4/ISO/AVC
Duration: 1 h 25 min
Bit rate mode: Variable
Bit rate: 25.2 Mb/s
Maximum bit rate: 35.0 Mb/s
Width: 1 920 pixels
Height: 1 080 pixels
Display aspect ratio: 16:9
Frame rate mode: Constant
Frame rate: 24.000 FPS
Standard: NTSC
Color space: YUV
Chroma subsampling: 4:2:0
Bit depth: 8 bits
Scan type: Progressive
Bits/(Pixel*Frame): 0.506
Stream size: 15.0 GiB (91%)
Default: Yes
Forced: No
Color range: Limited
Color primaries: BT.709
Transfer characteristics: BT.709
Matrix coefficients: BT.709

Audio #1
ID: 2
Format: AC-3
Format/Info: Audio Coding 3
Commercial name: Dolby Digital
Codec ID: A_AC3
Duration: 1 h 25 min
Bit rate mode: Constant
Bit rate: 384 kb/s
Channel(s): 6 channels
Channel layout: L R C LFE Ls Rs
Sampling rate: 48.0 kHz
Frame rate: 31.250 FPS (1536 SPF)
Compression mode: Lossy
Stream size: 235 MiB (1%)
Title: DUB (iTunes)
Language: Russian
Service kind: Complete Main
Default: Yes
Forced: Yes

Audio #2
ID: 3
Format: DTS XLL
Format/Info: Digital Theater Systems
Commercial name: DTS-HD Master Audio
Codec ID: A_DTS
Duration: 1 h 25 min
Bit rate mode: Variable
Bit rate: 2 102 kb/s
Channel(s): 6 channels
Channel layout: C L R Ls Rs LFE
Sampling rate: 48.0 kHz
Frame rate: 93.750 FPS (512 SPF)
Bit depth: 16 bits
Compression mode: Lossless
Stream size: 1.26 GiB (8%)
Title: Original
Default: No
Forced: No

Menu
00:00:00.000: :Emily.und.der.vergessene.Zauber.2020.GERMAN.COMPLETE
01:25:35.872: :Emily.und.der.vergessene.Zauber.2020.GERMAN.COMPLETE

Download
Для скачивания .torrent файлов необходима регистрация
Сайт не распространяет и не хранит электронные версии произведений, а лишь предоставляет доступ к создаваемому пользователями каталогу ссылок на торрент-файлы, которые содержат только списки хеш-сумм

Страница 1 из 1

Ответить на тему

   Похожие торренты   Торрент 




tracker_crontracker_cron