Регистрация ·  Логин: Пароль: Запомнить   · Забыли пароль?




Ответить на тему
Статистика раздачи
Размер: 4.38 ГБ | Зарегистрирован: 31 май 2021, 15:59 | .torrent скачан: 0 раз(а), DHT: [ 693 ] раз(а)
Сидеров: [ 88  | 0 байт/сек ]   Личеров: [ 7  | 0 байт/сек ]   DHT: [ 88 / 7 ]
Автор Сообщение

Модератор

С нами: 2 года 3 месяца
Сообщения: 3202
Россия

Сообщение 31 май 2021, 15:59 

[Цитировать]

Информация о фильме
Название: Однажды в Лондоне
Оригинальное название: Once Upon a Time in London
Год выхода: 2019
Жанр: Криминал, триллер
Режиссер: Саймон Рамли
В ролях: Холли Эрл, Доминик Китинг, Джофф Белл, Лео Грегори, Джейми Формен, Майкл МакКелл, Энди Беквит, Даг Аллен, Кейт Брейтуэйт, Терри Стоун

О фильме: Сюжет описывает жестокое правление Билли Хилла и Джека Комера и рассказывает о легендарном взлёте и падении общенациональной преступной империи, которая появилась в середине пятидесятых в результате действий близнецов Край...



Выпущено: Великобритания / Gateway Films
Продолжительность: 01:51:07
Озвучивание #1: Профессиональное (многоголосое) | русский язык | iTunes
Озвучивание #2: Профессиональное (многоголосое) | украинский язык | iTunes

Файл
Формат: MKV
Качество: WEB-DL 1080p | AMAZON
Видео: MPEG-4 AVC, 4230 Kb/s, 1920x1080
Аудио #1: Russian: 48 kHz, AC3 Dolby Digital, 3/2 (L, C, R, l, r) + LFE ch, ~384 Kbps | MVO | iTunes
Аудио #2: Ukrainian: 48 kHz, AC3 Dolby Digital, 3/2 (L, C, R, l, r) + LFE ch, ~384 Kbps | MVO | iTunes
Аудио #3: English: 48 kHz, Enhanced AC3 Dolby Digital, 3/2 (L, C, R, l, r) + LFE ch, ~640 Kbps | Original
Субтитры: Нет
Дополнительно: Нет

Релиз группы: &

Complete name: Odnazhdyi.v.Londone.2019.WEB-DL.1080p.AMZN.ELEKTRI4KA.UNIONGANG.mkv
Format: Matroska
Format version: Version 4
File size: 4.38 GiB
Duration: 1 h 51 min
Overall bit rate mode: Constant
Overall bit rate: 5 640 kb/s
Movie name: Odnazhdyi.v.Londone.2019.WEB-DL.1080p.AMZN.ELEKTRI4KA.UNIONGANG.
Encoded date: UTC 2021-05-07 22:43:20
Writing application: mkvmerge v8.3.0 ('Over the Horizon') 32bit
Writing library: libebml v1.3.1 + libmatroska v1.4.2

Video
ID: 1
Format: AVC
Format/Info: Advanced Video Codec
Format profile: [email protected]
Format settings: CABAC / 4 Ref Frames
Format settings, CABAC: Yes
Format settings, Reference frames: 4 frames
Codec ID: V_MPEG4/ISO/AVC
Duration: 1 h 51 min
Bit rate mode: Constant
Bit rate: 4 230 kb/s
Nominal bit rate: 10 000 kb/s
Width: 1 920 pixels
Height: 1 080 pixels
Display aspect ratio: 16:9
Frame rate mode: Constant
Frame rate: 24.000 FPS
Color space: YUV
Chroma subsampling: 4:2:0
Bit depth: 8 bits
Scan type: Progressive
Bits/(Pixel*Frame): 0.085
Stream size: 3.28 GiB (75%)
Language: English
Default: Yes
Forced: No
Color range: Limited
Color primaries: BT.709
Transfer characteristics: BT.709
Matrix coefficients: BT.709

Audio #1
ID: 2
Format: AC-3
Format/Info: Audio Coding 3
Commercial name: Dolby Digital
Codec ID: A_AC3
Duration: 1 h 51 min
Bit rate mode: Constant
Bit rate: 384 kb/s
Channel(s): 6 channels
Channel layout: L R C LFE Ls Rs
Sampling rate: 48.0 kHz
Frame rate: 31.250 FPS (1536 SPF)
Compression mode: Lossy
Stream size: 305 MiB (7%)
Title: MVO (iTunes)
Language: Russian
Service kind: Complete Main
Default: Yes
Forced: No

Audio #2
ID: 3
Format: AC-3
Format/Info: Audio Coding 3
Commercial name: Dolby Digital
Codec ID: A_AC3
Duration: 1 h 51 min
Bit rate mode: Constant
Bit rate: 384 kb/s
Channel(s): 6 channels
Channel layout: L R C LFE Ls Rs
Sampling rate: 48.0 kHz
Frame rate: 31.250 FPS (1536 SPF)
Compression mode: Lossy
Stream size: 305 MiB (7%)
Title: MVO (iTunes)
Language: Ukrainian
Service kind: Complete Main
Default: No
Forced: No

Audio #3
ID: 4
Format: E-AC-3
Format/Info: Enhanced AC-3
Commercial name: Dolby Digital Plus
Codec ID: A_EAC3
Duration: 1 h 51 min
Bit rate mode: Constant
Bit rate: 640 kb/s
Channel(s): 6 channels
Channel layout: L R C LFE Ls Rs
Sampling rate: 48.0 kHz
Frame rate: 31.250 FPS (1536 SPF)
Compression mode: Lossy
Stream size: 509 MiB (11%)
Title: Original
Language: English
Service kind: Complete Main
Default: No
Forced: No

Download
Для скачивания .torrent файлов необходима регистрация
Сайт не распространяет и не хранит электронные версии произведений, а лишь предоставляет доступ к создаваемому пользователями каталогу ссылок на торрент-файлы, которые содержат только списки хеш-сумм

Страница 1 из 1

Ответить на тему

   Похожие торренты   Торрент 




tracker_crontracker_cron