Регистрация ·  Логин: Пароль: Запомнить   · Забыли пароль?




Ответить на тему
Статистика раздачи
Размер: 8.9 ГБ | Зарегистрирован: 31 май 2021, 15:58 | .torrent скачан: 0 раз(а), DHT: [ 0 ] раз(а)
Сидеров: [ 0  | 0 байт/сек ]   Личеров: [ 0  | 0 байт/сек ]   DHT: [ 0 / 0 ]
Автор Сообщение

Модератор

С нами: 2 года 3 месяца
Сообщения: 3202
Россия

Сообщение 31 май 2021, 15:58 

[Цитировать]

Информация о фильме
Название: Уроки фарси
Оригинальное название: Persian Lessons
Год выхода: 2020
Жанр: Драма, военный
Режиссер: Вадим Перельман
В ролях: Ларс Айдингер, Науэль Перес Бискаярт, Леони Бенеш, Софья Гершевич, Александр Байер, Нико Эрентайт, Йонас Най, Джузеппе Скиллачи, Давид Шюттер, Гарет Макгрегор, Маркус Кэлвин, Питер Бек, Мехди Рахим-Сильвиоли, Феликс фон Бредов, Олег Вебер

О фильме: 1942 год, оккупированная Европа. Оказавшись в концлагере, бельгиец еврейского происхождения Жиль Кремье выдает себя за перса - для него это единственная возможность остаться в живых. Это ложь действительно спасает ему жизнь, но Жиль еще не представляет, какой ценой. Довольные таким редким уловом немецкие солдаты приводят Жиля к концлагерному повару Клаусу Коху, который мечтает, как только закончится война, уехать в Иран и открыть там ресторан. Кох ищет настоящего перса, который научит его говорить на персидском языке. Так начинается история Жиля Кремье и Клауса Коха - еврея и немца, узника и тюремщика, ученика и учителя.



Выпущено: Россия, Германия, Беларусь / Hype Film, LM Media, ONE TWO Films
Продолжительность: 02:07:03
Озвучивание: Дублированное | iTunes

Файл
Формат: MKV
Качество: BDRip 1080p
Видео: MPEG-4 AVC, 8999 Kb/s, 1920x720
Аудио #1: Russian: 48 kHz, AC3 Dolby Digital, 3/2 (L, C, R, l, r) + LFE ch, ~384 Kbps | DUB | iTunes
Аудио #2: German: 48 kHz, AC3 Dolby Digital, 3/2 (L, C, R, l, r) + LFE ch, ~640 Kbps | Original
Субтитры: Russian (Full), English, German
Дополнительно: Сохранены оригинальные чаптеры.

Релиз группы: &

Complete name: Uroki.farsi.2020.BDRip.1080p.ELEKTRI4KA.UNIONGANG.mkv
Format: Matroska
Format version: Version 4
File size: 8.90 GiB
Duration: 2 h 8 min
Overall bit rate: 9 921 kb/s
Movie name: Uroki farsi.2020.BDRip.1080p.ELEKTRI4KA.UNIONGANG.
Encoded date: UTC 2021-05-06 22:24:18
Writing application: mkvmerge v8.3.0 ('Over the Horizon') 32bit
Writing library: libebml v1.3.1 + libmatroska v1.4.2

Video
ID: 1
Format: AVC
Format/Info: Advanced Video Codec
Format profile: [email protected]
Format settings: CABAC / 5 Ref Frames
Format settings, CABAC: Yes
Format settings, Reference frames: 5 frames
Codec ID: V_MPEG4/ISO/AVC
Duration: 2 h 7 min
Bit rate: 8 999 kb/s
Width: 1 920 pixels
Height: 720 pixels
Display aspect ratio: 2.667
Frame rate mode: Constant
Frame rate: 24.000 FPS
Color space: YUV
Chroma subsampling: 4:2:0
Bit depth: 8 bits
Scan type: Progressive
Bits/(Pixel*Frame): 0.271
Stream size: 7.98 GiB (90%)
Writing library: x264 core 161 r3033 0d754ec
Encoding settings: cabac=1 / ref=5 / deblock=1:-3:-3 / analyse=0x3:0x113 / me=umh / subme=10 / psy=1 / psy_rd=1.05:0.00 / mixed_ref=1 / me_range=32 / chroma_me=1 / trellis=2 / 8x8dct=1 / cqm=0 / deadzone=21, 11 / fast_pskip=0 / chroma_qp_offset=-2 / threads=12 / lookahead_threads=2 / sliced_threads=0 / nr=0 / decimate=0 / interlaced=0 / bluray_compat=0 / constrained_intra=0 / bframes=9 / b_pyramid=2 / b_adapt=2 / b_bias=0 / direct=3 / weightb=1 / open_gop=0 / weightp=2 / keyint=240 / keyint_min=24 / scenecut=40 / intra_refresh=0 / rc_lookahead=50 / rc=2pass / mbtree=0 / bitrate=8999 / ratetol=1.0 / qcomp=0.65 / qpmin=0 / qpmax=69 / qpstep=4 / cplxblur=20.0 / qblur=0.5 / vbv_maxrate=50000 / vbv_bufsize=62500 / nal_hrd=none / filler=0 / ip_ratio=1.30 / pb_ratio=1.20 / aq=3:0.80
Language: English
Default: Yes
Forced: No
Color range: Limited
Color primaries: BT.709
Transfer characteristics: BT.709
Matrix coefficients: BT.709

Audio #1
ID: 2
Format: AC-3
Format/Info: Audio Coding 3
Commercial name: Dolby Digital
Codec ID: A_AC3
Duration: 2 h 8 min
Bit rate mode: Constant
Bit rate: 384 kb/s
Channel(s): 6 channels
Channel layout: L R C LFE Ls Rs
Sampling rate: 48.0 kHz
Frame rate: 31.250 FPS (1536 SPF)
Compression mode: Lossy
Stream size: 353 MiB (4%)
Title: DUB (iTunes)
Language: Russian
Service kind: Complete Main
Default: Yes
Forced: Yes

Audio #2
ID: 3
Format: AC-3
Format/Info: Audio Coding 3
Commercial name: Dolby Digital
Codec ID: A_AC3
Duration: 2 h 7 min
Bit rate mode: Constant
Bit rate: 640 kb/s
Channel(s): 6 channels
Channel layout: L R C LFE Ls Rs
Sampling rate: 48.0 kHz
Frame rate: 31.250 FPS (1536 SPF)
Compression mode: Lossy
Stream size: 582 MiB (6%)
Language: German
Service kind: Complete Main
Default: No
Forced: No

Text #1
ID: 4
Format: UTF-8
Codec ID: S_TEXT/UTF8
Codec ID/Info: UTF-8 Plain Text
Duration: 1 h 59 min
Bit rate: 66 b/s
Count of elements: 1281
Stream size: 58.5 KiB (0%)
Title: Full
Language: Russian
Default: No
Forced: No

Text #2
ID: 5
Format: UTF-8
Codec ID: S_TEXT/UTF8
Codec ID/Info: UTF-8 Plain Text
Duration: 1 h 59 min
Bit rate: 39 b/s
Count of elements: 1507
Stream size: 34.4 KiB (0%)
Language: English
Default: No
Forced: No

Text #3
ID: 6
Format: PGS
Muxing mode: zlib
Codec ID: S_HDMV/PGS
Codec ID/Info: Picture based subtitle format used on BDs/HD-DVDs
Duration: 2 h 5 min
Bit rate: 2 335 b/s
Count of elements: 604
Stream size: 2.10 MiB (0%)
Language: German
Default: No
Forced: No

Menu
00:00:00.000: en:00:00:00.000
00:08:54.292: en:00:08:54.292
00:20:28.292: en:00:20:28.292
00:30:07.792: en:00:30:07.792
00:41:09.292: en:00:41:09.292
00:50:03.833: en:00:50:03.833
00:59:03.542: en:00:59:03.542
01:09:58.875: en:01:09:58.875
01:19:58.708: en:01:19:58.708
01:29:19.750: en:01:29:19.750
01:42:43.542: en:01:42:43.542
01:54:18.458: en:01:54:18.458
02:02:54.292: en:02:02:54.292

Download
Для скачивания .torrent файлов необходима регистрация
Сайт не распространяет и не хранит электронные версии произведений, а лишь предоставляет доступ к создаваемому пользователями каталогу ссылок на торрент-файлы, которые содержат только списки хеш-сумм

Страница 1 из 1

Ответить на тему

   Похожие торренты   Торрент 




tracker_crontracker_cron