Регистрация ·  Логин: Пароль: Запомнить   · Забыли пароль?




Ответить на тему
Статистика раздачи
Размер: 11.2 ГБ | Зарегистрирован: 31 май 2021, 15:58 | .torrent скачан: 0 раз(а), DHT: [ 9 ] раз(а)
Сидеров: [ 15  | 0 байт/сек ]   Личеров: [ 2  | 0 байт/сек ]   DHT: [ 15 / 2 ]
Автор Сообщение

Модератор

С нами: 2 года 3 месяца
Сообщения: 3202
Россия

Сообщение 31 май 2021, 15:58 

[Цитировать]

Информация о фильме
Название: 438 дней
Оригинальное название: 438 dagar
Год выхода: 2019
Жанр: Триллер, драма, реальные события
Режиссер: Йеспер Гансландт
В ролях: Густаф Скарсгард, Матиас Варела, Йозефин Нельден, Файсал Ахмед, Грэм Кларк, Йеспер Гансландт, Стефен Дженнингс, Филип Санден, Сивуйеле Нгеси, Фредерик Скавлан

О фильме: Июнь 2011 года. Двое независимых шведских журналистов Йохан и Мартин решают сделать эксклюзивный репортаж о мятежной эфиопской провинции Огаден, где правительственные войска ведут войну с повстанцами Национального фронта освобождения Огадена. Чтобы накопать компромат на известного шведского политика Карла Бильдта, имевшего отношение к компании, занимающейся разведкой нефти в странах Африки, Йохан и Мартин проникают в Огаден с помощью повстанцев. Однако вскоре их ловят, и у журналистов остается одна надежда – что их вытащат те, под кого они копали.



Выпущено: Швеция / Film i Väst, Miso Film Sverige, Sveriges Television
Продолжительность: 02:02:56
Озвучивание: Дублированное | iTunes

Файл
Формат: MKV
Качество: BDRip 1080p
Видео: MPEG-4 AVC, 12.0 Mb/s, 1920x804
Аудио #1: Russian: 48 kHz, AC3 Dolby Digital, 3/2 (L, C, R, l, r) + LFE ch, ~384 Kbps | DUB | iTunes
Аудио #2: Swedish: 48 kHz, AC3 Dolby Digital, 3/2 (L, C, R, l, r) + LFE ch, ~640 Kbps | Original
Субтитры: Swedish, English
Дополнительно: Сохранены оригинальные чаптеры.

Релиз группы: & @ Fishe

Complete name : 438.Dney.2019.BDRip.1080p.ELEKTRI4KA.UNIONGANG.mkv
Format : Matroska
Format version : Version 4
File size : 11.2 GiB
Duration : 2 h 2 min
Overall bit rate : 13.0 Mb/s
Movie name : 438.Dney.2019.BDRip.1080p.ELEKTRI4KA.UNIONGANG.
Encoded date : UTC 2021-05-03 18:21:46
Writing application : mkvmerge v8.3.0 ('Over the Horizon') 32bit
Writing library : libebml v1.3.1 + libmatroska v1.4.2

Video
ID : 1
Format : AVC
Format/Info : Advanced Video Codec
Format profile : [email protected]
Format settings : CABAC / 5 Ref Frames
Format settings, CABAC : Yes
Format settings, Reference frames : 5 frames
Codec ID : V_MPEG4/ISO/AVC
Duration : 2 h 2 min
Bit rate : 12.0 Mb/s
Width : 1 920 pixels
Height : 804 pixels
Display aspect ratio : 2.40:1
Frame rate mode : Constant
Frame rate : 24.000 FPS
Color space : YUV
Chroma subsampling : 4:2:0
Bit depth : 8 bits
Scan type : Progressive
Bits/(Pixel*Frame) : 0.324
Stream size : 10.3 GiB (92%)
Writing library : x264 core 157 r2958 57baac4
Encoding settings : cabac=1 / ref=5 / deblock=1:-3:-3 / analyse=0x3:0x113 / me=umh / subme=10 / psy=1 / psy_rd=1.00:0.00 / mixed_ref=1 / me_range=32 / chroma_me=1 / trellis=2 / 8x8dct=1 / cqm=0 / deadzone=21, 11 / fast_pskip=0 / chroma_qp_offset=-2 / threads=49 / lookahead_threads=6 / sliced_threads=0 / nr=0 / decimate=0 / interlaced=0 / bluray_compat=0 / constrained_intra=0 / bframes=8 / b_pyramid=2 / b_adapt=2 / b_bias=0 / direct=3 / weightb=0 / open_gop=0 / weightp=2 / keyint=240 / keyint_min=24 / scenecut=40 / intra_refresh=0 / rc=2pass / mbtree=0 / bitrate=12000 / ratetol=1.0 / qcomp=0.60 / qpmin=0 / qpmax=69 / qpstep=4 / cplxblur=20.0 / qblur=0.5 / ip_ratio=1.40 / pb_ratio=1.30 / aq=1:1.00
Default : Yes
Forced : No
Color range : Limited
Color primaries : BT.709
Transfer characteristics : BT.709
Matrix coefficients : BT.709

Audio #1
ID : 2
Format : AC-3
Format/Info : Audio Coding 3
Commercial name : Dolby Digital
Codec ID : A_AC3
Duration : 2 h 2 min
Bit rate mode : Constant
Bit rate : 384 kb/s
Channel(s) : 6 channels
Channel layout : L R C LFE Ls Rs
Sampling rate : 48.0 kHz
Frame rate : 31.250 FPS (1536 SPF)
Compression mode : Lossy
Stream size : 337 MiB (3%)
Title : DUB (iTunes)
Language : Russian
Service kind : Complete Main
Default : Yes
Forced : Yes

Audio #2
ID : 3
Format : AC-3
Format/Info : Audio Coding 3
Commercial name : Dolby Digital
Codec ID : A_AC3
Duration : 2 h 2 min
Bit rate mode : Constant
Bit rate : 640 kb/s
Channel(s) : 6 channels
Channel layout : L R C LFE Ls Rs
Sampling rate : 48.0 kHz
Frame rate : 31.250 FPS (1536 SPF)
Compression mode : Lossy
Stream size : 563 MiB (5%)
Title : Original
Language : Swedish
Service kind : Complete Main
Default : No
Forced : No

Text #1
ID : 4
Format : PGS
Muxing mode : zlib
Codec ID : S_HDMV/PGS
Codec ID/Info : Picture based subtitle format used on BDs/HD-DVDs
Duration : 1 h 59 min
Bit rate : 10.8 kb/s
Count of elements : 1984
Stream size : 9.24 MiB (0%)
Language : Swedish
Default : Yes
Forced : No

Text #2
ID : 5
Format : PGS
Muxing mode : zlib
Codec ID : S_HDMV/PGS
Codec ID/Info : Picture based subtitle format used on BDs/HD-DVDs
Duration : 1 h 59 min
Bit rate : 6 065 b/s
Count of elements : 1178
Stream size : 5.17 MiB (0%)
Language : Swedish
Default : No
Forced : No

Text #3
ID : 6
Format : UTF-8
Codec ID : S_TEXT/UTF8
Codec ID/Info : UTF-8 Plain Text
Duration : 2 h 2 min
Bit rate : 38 b/s
Count of elements : 963
Stream size : 34.7 KiB (0%)
Language : English
Default : No
Forced : No

Menu
00:00:00.000 : :Chapter 01
00:03:54.458 : :Chapter 02
00:19:52.625 : :Chapter 03
00:33:03.291 : :Chapter 04
00:47:29.583 : :Chapter 05
01:02:06.000 : :Chapter 06
01:16:08.875 : :Chapter 07
01:32:36.500 : :Chapter 08
01:46:37.125 : :Chapter 09
01:58:39.208 : :Chapter 10

Download
Для скачивания .torrent файлов необходима регистрация
Сайт не распространяет и не хранит электронные версии произведений, а лишь предоставляет доступ к создаваемому пользователями каталогу ссылок на торрент-файлы, которые содержат только списки хеш-сумм

Страница 1 из 1

Ответить на тему

   Похожие торренты   Торрент 




tracker_crontracker_cron