Регистрация ·  Логин: Пароль: Запомнить   · Забыли пароль?




Ответить на тему
Статистика раздачи
Размер: 18.86 ГБ | Зарегистрирован: 31 май 2021, 15:58 | .torrent скачан: 0 раз(а), DHT: [ 0 ] раз(а)
Сидеров: [ 0  | 0 байт/сек ]   Личеров: [ 0  | 0 байт/сек ]   DHT: [ 0 / 0 ]
Автор Сообщение

Модератор

С нами: 2 года 3 месяца
Сообщения: 3202
Россия

Сообщение 31 май 2021, 15:58 

[Цитировать]

Информация о фильме
Название: 438 дней
Оригинальное название: 438 dagar
Год выхода: 2019
Жанр: Триллер, драма, реальные события
Режиссер: Йеспер Гансландт
В ролях: Густаф Скарсгард, Матиас Варела, Йозефин Нельден, Файсал Ахмед, Грэм Кларк, Йеспер Гансландт, Стефен Дженнингс, Филип Санден, Сивуйеле Нгеси, Фредерик Скавлан

О фильме: Июнь 2011 года. Двое независимых шведских журналистов Йохан и Мартин решают сделать эксклюзивный репортаж о мятежной эфиопской провинции Огаден, где правительственные войска ведут войну с повстанцами Национального фронта освобождения Огадена. Чтобы накопать компромат на известного шведского политика Карла Бильдта, имевшего отношение к компании, занимающейся разведкой нефти в странах Африки, Йохан и Мартин проникают в Огаден с помощью повстанцев. Однако вскоре их ловят, и у журналистов остается одна надежда – что их вытащат те, под кого они копали.



Выпущено: Швеция / Film i Väst, Miso Film Sverige, Sveriges Television
Продолжительность: 02:02:56
Озвучивание: Дублированное | iTunes

Файл
Формат: MKV
Качество: BDRemux 1080p
Видео: MPEG-4 AVC, 18.0 Mb/s, 1920x1080
Аудио #1: Russian: 48 kHz, AC3 Dolby Digital, 3/2 (L, C, R, l, r) + LFE ch, ~384 Kbps | DUB | iTunes
Аудио #2: Swedish: 48 kHz, DTS-HD Master Audio, 3/2 (L, C, R, l, r) + LFE ch, ~3551 Kbps | Original
Субтитры: Swedish, English
Дополнительно: Сохранены оригинальные чаптеры.

Релиз группы: &

Complete name: 438.Dney.2019.BDREMUX.1080p.ELEKTRI4KA.UNIONGANG.mkv
Format: Matroska
Format version: Version 4
File size: 18.9 GiB
Duration: 2 h 2 min
Overall bit rate mode: Variable
Overall bit rate: 22.0 Mb/s
Movie name: 438.Dney.2019.BDREMUX.1080p.ELEKTRI4KA.UNIONGANG.
Encoded date: UTC 2021-05-03 12:59:51
Writing application: mkvmerge v8.3.0 ('Over the Horizon') 32bit
Writing library: libebml v1.3.1 + libmatroska v1.4.2

Video
ID: 1
Format: AVC
Format/Info: Advanced Video Codec
Format profile: [email protected]
Format settings: CABAC / 4 Ref Frames
Format settings, CABAC: Yes
Format settings, Reference frames: 4 frames
Format settings, GOP: M=3, N=24
Codec ID: V_MPEG4/ISO/AVC
Duration: 2 h 2 min
Bit rate mode: Variable
Bit rate: 18.0 Mb/s
Maximum bit rate: 35.0 Mb/s
Width: 1 920 pixels
Height: 1 080 pixels
Display aspect ratio: 16:9
Frame rate mode: Constant
Frame rate: 24.000 FPS
Standard: NTSC
Color space: YUV
Chroma subsampling: 4:2:0
Bit depth: 8 bits
Scan type: Progressive
Bits/(Pixel*Frame): 0.362
Stream size: 15.5 GiB (82%)
Default: Yes
Forced: No
Color range: Limited
Color primaries: BT.709
Transfer characteristics: BT.709
Matrix coefficients: BT.709

Audio #1
ID: 2
Format: AC-3
Format/Info: Audio Coding 3
Commercial name: Dolby Digital
Codec ID: A_AC3
Duration: 2 h 2 min
Bit rate mode: Constant
Bit rate: 384 kb/s
Channel(s): 6 channels
Channel layout: L R C LFE Ls Rs
Sampling rate: 48.0 kHz
Frame rate: 31.250 FPS (1536 SPF)
Compression mode: Lossy
Stream size: 337 MiB (2%)
Title: DUB (iTunes)
Language: Russian
Service kind: Complete Main
Default: Yes
Forced: Yes

Audio #2
ID: 3
Format: DTS XLL
Format/Info: Digital Theater Systems
Commercial name: DTS-HD Master Audio
Codec ID: A_DTS
Duration: 2 h 2 min
Bit rate mode: Variable
Bit rate: 3 551 kb/s
Channel(s): 6 channels
Channel layout: C L R Ls Rs LFE
Sampling rate: 48.0 kHz
Frame rate: 93.750 FPS (512 SPF)
Bit depth: 24 bits
Compression mode: Lossless
Stream size: 3.05 GiB (16%)
Title: Original
Language: Swedish
Default: No
Forced: No

Text #1
ID: 4
Format: PGS
Muxing mode: zlib
Codec ID: S_HDMV/PGS
Codec ID/Info: Picture based subtitle format used on BDs/HD-DVDs
Duration: 1 h 59 min
Bit rate: 10.8 kb/s
Count of elements: 1984
Stream size: 9.24 MiB (0%)
Language: Swedish
Default: Yes
Forced: No

Text #2
ID: 5
Format: PGS
Muxing mode: zlib
Codec ID: S_HDMV/PGS
Codec ID/Info: Picture based subtitle format used on BDs/HD-DVDs
Duration: 1 h 59 min
Bit rate: 6 065 b/s
Count of elements: 1178
Stream size: 5.17 MiB (0%)
Language: Swedish
Default: No
Forced: No

Text #3
ID: 6
Format: UTF-8
Codec ID: S_TEXT/UTF8
Codec ID/Info: UTF-8 Plain Text
Duration: 2 h 2 min
Bit rate: 38 b/s
Count of elements: 963
Stream size: 34.7 KiB (0%)
Language: English
Default: No
Forced: No

Menu
00:00:00.000: en:Chapter 01
00:03:54.458: en:Chapter 02
00:19:52.625: en:Chapter 03
00:33:03.291: en:Chapter 04
00:47:29.583: en:Chapter 05
01:02:06.000: en:Chapter 06
01:16:08.875: en:Chapter 07
01:32:36.500: en:Chapter 08
01:46:37.125: en:Chapter 09
01:58:39.208: en:Chapter 10

Download
Для скачивания .torrent файлов необходима регистрация
Сайт не распространяет и не хранит электронные версии произведений, а лишь предоставляет доступ к создаваемому пользователями каталогу ссылок на торрент-файлы, которые содержат только списки хеш-сумм

Страница 1 из 1

Ответить на тему

   Похожие торренты   Торрент 




tracker_crontracker_cron