Регистрация ·  Логин: Пароль: Запомнить   · Забыли пароль?




Ответить на тему
Статистика раздачи
Размер: 5.81 ГБ | Зарегистрирован: 31 май 2021, 15:57 | .torrent скачан: 0 раз(а), DHT: [ 0 ] раз(а)
Сидеров: [ 0  | 0 байт/сек ]   Личеров: [ 0  | 0 байт/сек ]   DHT: [ 0 / 0 ]
Автор Сообщение

Модератор

С нами: 2 года 3 месяца
Сообщения: 3202
Россия

Сообщение 31 май 2021, 15:57 

[Цитировать]

Информация о фильме
Название: Выход
Оригинальное название: Eksiteu / Exit
Год выхода: 2019
Жанр: Боевик, комедия
Режиссер: Ли Сан-гын
В ролях: Чо Джон-сок, Лим Юн-а, Ко Ду-щим, Пак Ин-хван, Ким Джи-ён, Кан Ги-ён, Ким Джон-гу, Ким Бён-сун, Хван Хё-ын, Ли Бон-нён

О фильме: 30-летний неудачник Ён-нам никак не может устроиться на нормальную работу, а единственное, в чём он преуспел, — это скалолазание. Жизнь бедолаги похожа на катастрофу: приходится жить с родителями, отбиваться от постоянных нападок старшей сестры, и даже малолетний племянник его стыдится. Большой банкет по поводу 70-летия матери Ён-нама «по странному стечению обстоятельств» проходит на одном из верхних этажей здания, где работает И-джу, его безответная любовь ещё с колледжа. Когда праздник уже завершился, неугомонные родственники никак не хотят расходиться, а сам парень готов сгореть от стыда, по городу начинает распространяться ядовитый газ. Единственный способ не отравиться — попасть на крышу, но дверь заперта, и теперь бесполезные, по мнению семейства, навыки Ён-нама могут спасти им всем жизнь.



Выпущено: Южная Корея / CJ Entertainment
Продолжительность: 01:43:38
Озвучивание: Дублированное | iTunes

Файл
Формат: MKV
Качество: BDRip 720p
Видео: MPEG-4 AVC, 7000 Кb/s, 1280x536
Аудио #1: Russian: 48 kHz, AC3 Dolby Digital, 3/2 (L, C, R, l, r) + LFE ch, ~384 Kbps | DUB | iTunes
Аудио #2: Korean: 48 kHz, AC3 Dolby Digital, 3/2 (L, C, R, l, r) + LFE ch, ~640 Kbps | Original
Субтитры: English
Дополнительно: Сохранены оригинальные чаптеры.

Релиз группы: &

Complete name : Exit.2019.720p.BluRay.ELEKTRI4KA.UNIONGANG.mkv
Format : Matroska
Format version : Version 4
File size : 5.81 GiB
Duration : 1 h 43 min
Overall bit rate : 8 026 kb/s
Movie name : Exit.2019.720p.BluRay.ELEKTRI4KA.UNIONGANG.
Encoded date : UTC 2021-05-02 11:29:59
Writing application : mkvmerge v8.3.0 ('Over the Horizon') 32bit
Writing library : libebml v1.3.1 + libmatroska v1.4.2

Video
ID : 1
Format : AVC
Format/Info : Advanced Video Codec
Format profile : [email protected]
Format settings : CABAC / 12 Ref Frames
Format settings, CABAC : Yes
Format settings, Reference frames : 12 frames
Codec ID : V_MPEG4/ISO/AVC
Duration : 1 h 43 min
Bit rate : 7 000 kb/s
Width : 1 280 pixels
Height : 536 pixels
Display aspect ratio : 2.40:1
Frame rate mode : Constant
Frame rate : 24.000 FPS
Color space : YUV
Chroma subsampling : 4:2:0
Bit depth : 8 bits
Scan type : Progressive
Bits/(Pixel*Frame) : 0.425
Stream size : 5.07 GiB (87%)
Writing library : x264 core 157 r2958 57baac4
Encoding settings : cabac=1 / ref=12 / deblock=1:-3:-3 / analyse=0x3:0x133 / me=umh / subme=10 / psy=1 / psy_rd=1.00:0.00 / mixed_ref=1 / me_range=32 / chroma_me=1 / trellis=2 / 8x8dct=1 / cqm=0 / deadzone=21, 11 / fast_pskip=0 / chroma_qp_offset=-2 / threads=49 / lookahead_threads=4 / sliced_threads=0 / nr=0 / decimate=0 / interlaced=0 / bluray_compat=0 / constrained_intra=0 / bframes=8 / b_pyramid=2 / b_adapt=2 / b_bias=0 / direct=3 / weightb=0 / open_gop=0 / weightp=2 / keyint=240 / keyint_min=24 / scenecut=40 / intra_refresh=0 / rc=2pass / mbtree=0 / bitrate=7000 / ratetol=1.0 / qcomp=0.60 / qpmin=0 / qpmax=69 / qpstep=4 / cplxblur=20.0 / qblur=0.5 / ip_ratio=1.40 / pb_ratio=1.30 / aq=1:1.00
Language : Korean
Default : Yes
Forced : No

Audio #1
ID : 2
Format : AC-3
Format/Info : Audio Coding 3
Commercial name : Dolby Digital
Codec ID : A_AC3
Duration : 1 h 43 min
Bit rate mode : Constant
Bit rate : 384 kb/s
Channel(s) : 6 channels
Channel layout : L R C LFE Ls Rs
Sampling rate : 48.0 kHz
Frame rate : 31.250 FPS (1536 SPF)
Compression mode : Lossy
Stream size : 285 MiB (5%)
Title : DUB (iTunes)
Language : Russian
Service kind : Complete Main
Default : Yes
Forced : Yes

Audio #2
ID : 3
Format : AC-3
Format/Info : Audio Coding 3
Commercial name : Dolby Digital
Codec ID : A_AC3
Duration : 1 h 43 min
Bit rate mode : Constant
Bit rate : 640 kb/s
Channel(s) : 6 channels
Channel layout : L R C LFE Ls Rs
Sampling rate : 48.0 kHz
Frame rate : 31.250 FPS (1536 SPF)
Compression mode : Lossy
Stream size : 474 MiB (8%)
Title : Original
Language : Korean
Service kind : Complete Main
Default : No
Forced : No

Text
ID : 4
Format : UTF-8
Codec ID : S_TEXT/UTF8
Codec ID/Info : UTF-8 Plain Text
Duration : 1 h 39 min
Bit rate : 43 b/s
Count of elements : 1288
Stream size : 31.6 KiB (0%)
Language : English
Default : Yes
Forced : No

Menu
00:00:00.000 : :з»—?01 з»”?
00:08:35.792 : :з»—?02 з»”?
00:17:02.750 : :з»—?03 з»”?
00:25:11.958 : :з»—?04 з»”?
00:33:40.042 : :з»—?05 з»”?
00:41:33.500 : :з»—?06 з»”?
00:51:15.542 : :з»—?07 з»”?
00:59:42.875 : :з»—?08 з»”?
01:09:06.042 : :з»—?09 з»”?
01:18:06.833 : :з»—?10 з»”?
01:26:13.167 : :з»—?11 з»”?
01:35:41.333 : :з»—?12 з»”?

Download
Для скачивания .torrent файлов необходима регистрация
Сайт не распространяет и не хранит электронные версии произведений, а лишь предоставляет доступ к создаваемому пользователями каталогу ссылок на торрент-файлы, которые содержат только списки хеш-сумм

Страница 1 из 1

Ответить на тему

   Похожие торренты   Торрент 




tracker_crontracker_cron