Регистрация ·  Логин: Пароль: Запомнить   · Забыли пароль?




Ответить на тему
Статистика раздачи
Размер: 11.12 ГБ | Зарегистрирован: 31 май 2021, 15:57 | .torrent скачан: 0 раз(а), DHT: [ 0 ] раз(а)
Сидеров: [ 0  | 0 байт/сек ]   Личеров: [ 0  | 0 байт/сек ]   DHT: [ 0 / 0 ]
Автор Сообщение

Модератор

С нами: 2 года 3 месяца
Сообщения: 3142
Россия

Сообщение 31 май 2021, 15:57 

[Цитировать]

Информация о фильме
Название: Выход
Оригинальное название: Eksiteu / Exit
Год выхода: 2019
Жанр: Боевик, комедия
Режиссер: Ли Сан-гын
В ролях: Чо Джон-сок, Лим Юн-а, Ко Ду-щим, Пак Ин-хван, Ким Джи-ён, Кан Ги-ён, Ким Джон-гу, Ким Бён-сун, Хван Хё-ын, Ли Бон-нён

О фильме: 30-летний неудачник Ён-нам никак не может устроиться на нормальную работу, а единственное, в чём он преуспел, — это скалолазание. Жизнь бедолаги похожа на катастрофу: приходится жить с родителями, отбиваться от постоянных нападок старшей сестры, и даже малолетний племянник его стыдится. Большой банкет по поводу 70-летия матери Ён-нама «по странному стечению обстоятельств» проходит на одном из верхних этажей здания, где работает И-джу, его безответная любовь ещё с колледжа. Когда праздник уже завершился, неугомонные родственники никак не хотят расходиться, а сам парень готов сгореть от стыда, по городу начинает распространяться ядовитый газ. Единственный способ не отравиться — попасть на крышу, но дверь заперта, и теперь бесполезные, по мнению семейства, навыки Ён-нама могут спасти им всем жизнь.



Выпущено: Южная Корея / CJ Entertainment
Продолжительность: 01:43:38
Озвучивание: Дублированное | iTunes

Файл
Формат: MKV
Качество: BDRip 1080p
Видео: MPEG-4 AVC, 14.3 Мb/s, 1920x804
Аудио #1: Russian: 48 kHz, AC3 Dolby Digital, 3/2 (L, C, R, l, r) + LFE ch, ~384 Kbps | DUB | iTunes
Аудио #2: Korean: 48 kHz, AC3 Dolby Digital, 3/2 (L, C, R, l, r) + LFE ch, ~640 Kbps | Original
Субтитры: English
Дополнительно: Сохранены оригинальные чаптеры.

Релиз группы: &

Complete name: Exit.2019.1080p.BluRay.ELEKTRI4KA.UNIONGANG.mkv
Format: Matroska
Format version: Version 4
File size: 11.1 GiB
Duration: 1 h 43 min
Overall bit rate: 15.4 Mb/s
Movie name: Exit.2019.1080p.BluRay.ELEKTRI4KA.UNIONGANG.
Encoded date: UTC 2021-05-02 11:19:45
Writing application: mkvmerge v8.3.0 ('Over the Horizon') 32bit
Writing library: libebml v1.3.1 + libmatroska v1.4.2

Video
ID: 1
Format: AVC
Format/Info: Advanced Video Codec
Format profile: [email protected]
Format settings: CABAC / 4 Ref Frames
Format settings, CABAC: Yes
Format settings, Reference frames: 4 frames
Codec ID: V_MPEG4/ISO/AVC
Duration: 1 h 43 min
Bit rate: 14.3 Mb/s
Width: 1 920 pixels
Height: 804 pixels
Display aspect ratio: 2.40:1
Frame rate mode: Constant
Frame rate: 24.000 FPS
Color space: YUV
Chroma subsampling: 4:2:0
Bit depth: 8 bits
Scan type: Progressive
Bits/(Pixel*Frame): 0.387
Stream size: 10.4 GiB (93%)
Writing library: x264 core 157 r2867+150 7e91e0e t_mod_Custom_2 [[email protected] X86_64]
Encoding settings: cabac=1 / ref=4 / deblock=1:-3:-3 / analyse=0x3:0x133 / me=umh / subme=11 / psy=1 / fade_compensate=0.00 / psy_rd=0.90:0.10 / mixed_ref=1 / me_range=64 / chroma_me=1 / trellis=2 / 8x8dct=1 / cqm=0 / deadzone=21, 11 / fast_pskip=0 / chroma_qp_offset=-4 / threads=25 / lookahead_threads=4 / sliced_threads=0 / nr=0 / decimate=1 / interlaced=0 / bluray_compat=0 / constrained_intra=0 / fgo=0 / bframes=8 / b_pyramid=2 / b_adapt=2 / b_bias=0 / direct=3 / weightb=1 / open_gop=0 / weightp=2 / keyint=250 / keyint_min=24 / scenecut=40 / intra_refresh=0 / rc_lookahead=60 / rc=crf / mbtree=0 / crf=18.0000 / qcomp=0.70 / qpmin=0:0:0 / qpmax=69:69:69 / qpstep=4 / vbv_maxrate=35000 / vbv_bufsize=35000 / crf_max=0.0 / nal_hrd=none / filler=0 / ip_ratio=1.40 / pb_ratio=1.30 / aq=3:1.00 / aq-sensitivity=10.00 / aq-factor=1.00:1.00:1.00 / aq2=0 / aq3=0
Language: Korean
Default: Yes
Forced: No

Audio #1
ID: 2
Format: AC-3
Format/Info: Audio Coding 3
Commercial name: Dolby Digital
Codec ID: A_AC3
Duration: 1 h 43 min
Bit rate mode: Constant
Bit rate: 384 kb/s
Channel(s): 6 channels
Channel layout: L R C LFE Ls Rs
Sampling rate: 48.0 kHz
Frame rate: 31.250 FPS (1536 SPF)
Compression mode: Lossy
Stream size: 285 MiB (2%)
Title: DUB (iTunes)
Language: Russian
Service kind: Complete Main
Default: Yes
Forced: Yes

Audio #2
ID: 3
Format: AC-3
Format/Info: Audio Coding 3
Commercial name: Dolby Digital
Codec ID: A_AC3
Duration: 1 h 43 min
Bit rate mode: Constant
Bit rate: 640 kb/s
Channel(s): 6 channels
Channel layout: L R C LFE Ls Rs
Sampling rate: 48.0 kHz
Frame rate: 31.250 FPS (1536 SPF)
Compression mode: Lossy
Stream size: 474 MiB (4%)
Title: Original
Language: Korean
Service kind: Complete Main
Default: No
Forced: No

Text
ID: 4
Format: UTF-8
Codec ID: S_TEXT/UTF8
Codec ID/Info: UTF-8 Plain Text
Duration: 1 h 39 min
Bit rate: 43 b/s
Count of elements: 1288
Stream size: 31.6 KiB (0%)
Language: English
Default: Yes
Forced: No

Menu
00:00:00.000: :绗?01 绔?
00:08:35.792: :绗?02 绔?
00:17:02.750: :绗?03 绔?
00:25:11.958: :绗?04 绔?
00:33:40.042: :绗?05 绔?
00:41:33.500: :绗?06 绔?
00:51:15.542: :绗?07 绔?
00:59:42.875: :绗?08 绔?
01:09:06.042: :绗?09 绔?
01:18:06.833: :绗?10 绔?
01:26:13.167: :绗?11 绔?
01:35:41.333: :绗?12 绔?

Download
Для скачивания .torrent файлов необходима регистрация
Сайт не распространяет и не хранит электронные версии произведений, а лишь предоставляет доступ к создаваемому пользователями каталогу ссылок на торрент-файлы, которые содержат только списки хеш-сумм

Страница 1 из 1

Ответить на тему

   Похожие торренты   Торрент 




tracker_crontracker_crontracker_cron