Регистрация ·  Логин: Пароль: Запомнить   · Забыли пароль?




Ответить на тему
Статистика раздачи
Размер: 2.63 ГБ | Зарегистрирован: 31 май 2021, 15:57 | .torrent скачан: 0 раз(а), DHT: [ 0 ] раз(а)
Сидеров: [ 0  | 0 байт/сек ]   Личеров: [ 0  | 0 байт/сек ]   DHT: [ 0 / 0 ]
Автор Сообщение

Модератор

С нами: 2 года 3 месяца
Сообщения: 3202
Россия

Сообщение 31 май 2021, 15:57 

[Цитировать]

Информация о фильме
Название: Дино Дана
Оригинальное название: Dino Dana: The Movie
Год выхода: 2020
Жанр: Фэнтези, приключения, семейный
Режиссер: Дж.Дж. Джонсон
В ролях: Микела Люси, Дональд Хендерсон, Милли Дэвис, Никола Коррейя-Дамуд, Саара Чодри, Эмиш Пател, Райан Махлуф, Трек Буччино, Джейсон Спивак, Ричи Лоуренс

О фильме: 10-летняя Дана обожает динозавров и все, что с ними связано. Однажды она обнаруживает в себе способность видеть в своем городе настоящих, живых динозавров! Дана исследует новый, открывшийся для нее мир, и пытается раскрыть все его тайны. Вместе с друзьями она хочет найти ответ на вопрос, почему, ученые находят так много останков взрослых динозавров, но совсем нет следов их детенышей… Девочка готова отправиться в незабываемое путешествие в парк Юрского периода, устроенный прямо на заднем дворе ее дома. Ей предстоит грандиознейшее приключение, полное опасностей и необыкновенных открытий.



Выпущено: Канада, США / Sinking Ship Entertainment, Telefilm Canada, Amazon Studios
Продолжительность: 01:16:17
Озвучивание: Дублированное | iTunes

Файл
Формат: MKV
Качество: WEB-DL 1080p
Видео: MPEG-4 AVC, 4553 Kb/s, 1920x802
Аудио: Russian: 48 kHz, AC3 Dolby Digital, 3/2 (L, C, R, l, r) + LFE ch, ~384 Kbps
Субтитры: Нет
Дополнительно: Сохранены оригинальные чаптеры.

Релиз группы: &

Complete name : Dino.Dana.2020.WEB-DL.1080p.ELEKTRI4KA.UNIONGANG.mkv
Format : Matroska
Format version : Version 4
File size : 2.63 GiB
Duration : 1 h 16 min
Overall bit rate : 4 938 kb/s
Movie name : Dino.Dana.2020.WEB-DL.1080p.ELEKTRI4KA.UNIONGANG.
Encoded date : UTC 2021-04-29 18:07:27
Writing application : mkvmerge v8.3.0 ('Over the Horizon') 32bit
Writing library : libebml v1.3.1 + libmatroska v1.4.2

Video
ID : 1
Format : AVC
Format/Info : Advanced Video Codec
Format profile : [email protected]
Format settings : CABAC / 5 Ref Frames
Format settings, CABAC : Yes
Format settings, Reference frames : 5 frames
Codec ID : V_MPEG4/ISO/AVC
Duration : 1 h 16 min
Bit rate : 4 553 kb/s
Width : 1 920 pixels
Height : 802 pixels
Display aspect ratio : 2.40:1
Frame rate mode : Constant
Frame rate : 24.000 FPS
Color space : YUV
Chroma subsampling : 4:2:0
Bit depth : 8 bits
Scan type : Progressive
Bits/(Pixel*Frame) : 0.123
Stream size : 2.42 GiB (92%)
Language : English
Default : Yes
Forced : No
Color range : Limited
Color primaries : BT.709
Transfer characteristics : BT.709
Matrix coefficients : BT.709

Audio
ID : 2
Format : AC-3
Format/Info : Audio Coding 3
Commercial name : Dolby Digital
Codec ID : A_AC3
Duration : 1 h 16 min
Bit rate mode : Constant
Bit rate : 384 kb/s
Channel(s) : 6 channels
Channel layout : L R C LFE Ls Rs
Sampling rate : 48.0 kHz
Frame rate : 31.250 FPS (1536 SPF)
Compression mode : Lossy
Stream size : 209 MiB (8%)
Title : DUB (iTunes)
Language : Russian
Service kind : Complete Main
Default : Yes
Forced : No

Menu
00:00:00.000 : en:Глава 1
00:05:31.750 : en:Глава 2
00:12:20.000 : en:Глава 3
00:17:28.791 : en:Глава 4
00:24:09.041 : en:Глава 5
00:31:58.082 : en:Глава 6
00:39:56.998 : en:Глава 7
00:47:49.331 : en:Глава 8
00:55:16.331 : en:Глава 9
01:02:19.789 : en:Глава 10
01:08:01.289 : en:Глава 11

Download
Для скачивания .torrent файлов необходима регистрация
Сайт не распространяет и не хранит электронные версии произведений, а лишь предоставляет доступ к создаваемому пользователями каталогу ссылок на торрент-файлы, которые содержат только списки хеш-сумм

Страница 1 из 1

Ответить на тему

   Похожие торренты   Торрент 




tracker_crontracker_cron