Регистрация ·  Логин: Пароль: Запомнить   · Забыли пароль?




Ответить на тему
Статистика раздачи
Размер: 4.42 ГБ | Зарегистрирован: 31 май 2021, 15:57 | .torrent скачан: 0 раз(а), DHT: [ 0 ] раз(а)
Сидеров: [ 0  | 0 байт/сек ]   Личеров: [ 0  | 0 байт/сек ]   DHT: [ 0 / 0 ]
Автор Сообщение

Модератор

С нами: 2 года 3 месяца
Сообщения: 3202
Россия

Сообщение 31 май 2021, 15:57 

[Цитировать]

Информация о фильме
Название: Мушкетеры. Неизвестная миссия
Оригинальное название: Moschettieri del re - La penultima missione
Год выхода: 2018
Жанр: Комедия, приключения
Режиссер: Джованни Веронези
В ролях: Пьерфранческо Фавино, Валерио Мастандреа, Рокко Папалео, Серджо Рубини, Маргерита Буй, Алессандро Абер, Матильда Джоли, Джулия Бевилакуа, Валерия Соларино, Раффаэле Ванноли

О фильме: Окончив службу, 4 мушкетёра пытаются вести унылую мирную жизнь. Д’Артаньян работает мясником и лечит колено. Атос поглощен новыми романами и лечит плечо. Арамис стал аббатом в монастыре. Портос, похудевший и несчастный, стал заложником Бахуса. Но когда королева Анна Австрийская поручает им новую миссию, мушкетёры вновь берутся за оружие. Один за всех, и все за одного!



Выпущено: Италия / Indiana Production Company, Vision Distribution, Carnet
Продолжительность: 01:45:40
Озвучивание: Дублированное | IVI

Файл
Формат: MKV
Качество: WEBRip 1080p
Видео: MPEG-4 AVC, 5120 Kb/s, 1920x800
Аудио #1: Russian: 48 kHz, AC3 Dolby Digital, 3/2 (L, C, R, l, r) + LFE ch, ~384 Kbps | DUB | IVI
Аудио #2: Russian: 48 kHz, Advanced Audio Codec, 3/2 (L, C, R, l, r) + LFE ch, ~512 Kbps | DUB | IVI
Субтитры: Нет
Дополнительно: Нет

Релиз группы: &

Complete name: Mushketeryi.Neizvestnaya.missiya.2018.WEB-DL.1080p.ELEKTRI4KA.UNIONGANG.mkv
Format: Matroska
Format version: Version 4
File size: 4.42 GiB
Duration: 1 h 45 min
Overall bit rate: 5 994 kb/s
Movie name: Mushketeryi.Neizvestnaya.missiya.2018.WEB-DL.1080p.ELEKTRI4KA.UNIONGANG.
Encoded date: UTC 2021-04-30 18:00:27
Writing application: mkvmerge v8.3.0 ('Over the Horizon') 32bit
Writing library: libebml v1.3.1 + libmatroska v1.4.2

Video
ID: 1
Format: AVC
Format/Info: Advanced Video Codec
Format profile: [email protected]
Format settings: CABAC / 4 Ref Frames
Format settings, CABAC: Yes
Format settings, Reference frames: 4 frames
Codec ID: V_MPEG4/ISO/AVC
Duration: 1 h 45 min
Bit rate: 5 120 kb/s
Width: 1 920 pixels
Height: 800 pixels
Display aspect ratio: 2.40:1
Frame rate mode: Constant
Frame rate: 25.000 FPS
Color space: YUV
Chroma subsampling: 4:2:0
Bit depth: 8 bits
Scan type: Progressive
Bits/(Pixel*Frame): 0.133
Stream size: 3.76 GiB (85%)
Writing library: x264 core 148
Encoding settings: cabac=1 / ref=3 / deblock=1:0:0 / analyse=0x3:0x113 / me=hex / subme=7 / psy=1 / psy_rd=1.00:0.00 / mixed_ref=1 / me_range=16 / chroma_me=1 / trellis=1 / 8x8dct=1 / cqm=0 / deadzone=21, 11 / fast_pskip=1 / chroma_qp_offset=-2 / threads=25 / lookahead_threads=4 / sliced_threads=0 / nr=0 / decimate=1 / interlaced=0 / bluray_compat=0 / constrained_intra=0 / bframes=6 / b_pyramid=2 / b_adapt=1 / b_bias=0 / direct=1 / weightb=1 / open_gop=0 / weightp=2 / keyint=50 / keyint_min=26 / scenecut=0 / intra_refresh=0 / rc_lookahead=40 / rc=2pass / mbtree=1 / bitrate=5120 / ratetol=1.0 / qcomp=0.60 / qpmin=0 / qpmax=69 / qpstep=4 / cplxblur=20.0 / qblur=0.5 / vbv_maxrate=7680 / vbv_bufsize=20480 / nal_hrd=none / filler=0 / ip_ratio=1.40 / aq=1:1.00
Default: Yes
Forced: No

Audio #1
ID: 2
Format: AC-3
Format/Info: Audio Coding 3
Commercial name: Dolby Digital
Codec ID: A_AC3
Duration: 1 h 45 min
Bit rate mode: Constant
Bit rate: 384 kb/s
Channel(s): 6 channels
Channel layout: L R C LFE Ls Rs
Sampling rate: 48.0 kHz
Frame rate: 31.250 FPS (1536 SPF)
Compression mode: Lossy
Delay relative to video: -43 ms
Stream size: 290 MiB (6%)
Title: DUB AC3 (IVI)
Language: Russian
Service kind: Complete Main
Default: Yes
Forced: Yes

Audio #2
ID: 3
Format: AAC LC
Format/Info: Advanced Audio Codec Low Complexity
Codec ID: A_AAC-2
Duration: 1 h 45 min
Bit rate: 512 kb/s
Channel(s): 6 channels
Channel layout: C L R Ls Rs LFE
Sampling rate: 48.0 kHz
Frame rate: 46.875 FPS (1024 SPF)
Compression mode: Lossy
Delay relative to video: -43 ms
Stream size: 387 MiB (9%)
Title: DUB AAC (IVI)
Language: Russian
Default: No
Forced: No

Download
Для скачивания .torrent файлов необходима регистрация
Сайт не распространяет и не хранит электронные версии произведений, а лишь предоставляет доступ к создаваемому пользователями каталогу ссылок на торрент-файлы, которые содержат только списки хеш-сумм

Страница 1 из 1

Ответить на тему

   Похожие торренты   Торрент 




tracker_crontracker_cron