Регистрация ·  Логин: Пароль: Запомнить   · Забыли пароль?




Ответить на тему
Статистика раздачи
Размер: 3.44 ГБ | Зарегистрирован: 31 май 2021, 15:57 | .torrent скачан: 0 раз(а), DHT: [ 1 ] раз(а)
Сидеров: [ 3  | 0 байт/сек ]   Личеров: [ 1  | 0 байт/сек ]   DHT: [ 3 / 1 ]
Автор Сообщение

Модератор

С нами: 2 года 3 месяца
Сообщения: 3142
Россия

Сообщение 31 май 2021, 15:57 

[Цитировать]

Информация о фильме
Название: Невидимка Сью
Оригинальное название: Invisible Sue
Год выхода: 2018
Жанр: Фэнтези, приключения
Режиссер: Маркус Дитрих
В ролях: Руби М. Лихтенберг, Анна Ширин Хабеданк, Луи Экхардт, Виктория Майер, Люк Шильц, Жанна Вернер, Патрик Хастерт, Лотте Чарнтке, Татья Сейбт, Изабель Штурм, Стефани Стремлер, Кэтрин Янке, Роланд Гельхаузен, Микки Хардт, Рой Питер Линк

О фильме: У Сью возникла уникальная способность становиться невидимой, после того как в генетической лаборатории её матери случился взрыв. Её мама разрабатывала чудотворную жидкость, для борьбы с недугами. В один момент мать Сью исчезает. Сью и ее друзья объединяют свои силы и таланты, чтобы освободить ее мать, разоблачить заговор, стоящий за ее исчезновением, и вывести правду на свет.



Выпущено: Германия, Люксембург / Ostlicht Filmproduktion
Продолжительность: 01:35:30
Озвучивание: Дублированное | IVI

Файл
Формат: MKV
Качество: WEB-DL 1080p
Видео: MPEG-4 AVC, 4584 Kb/s, 1912x792
Аудио #1: Russian: 48 kHz, AC3 Dolby Digital, 2/0 (L, R) ch, ~192 Kbps | DUB | IVI
Аудио #2: English: 48 kHz, AC3 Dolby Digital, 3/2 (L, C, R, l, r) + LFE ch, ~384 Kbps | Original
Субтитры: English
Дополнительно: Сохранены оригинальные чаптеры.

Релиз группы: &

Complete name: Invisible.Sue.2019.1080p.WEB-DL.ELEKTRI4KA.UNIONGANG.mkv
Format: Matroska
Format version: Version 4
File size: 3.44 GiB
Duration: 1 h 35 min
Overall bit rate: 5 162 kb/s
Movie name: Invisible.Sue.2019.1080p.WEB-DL.ELEKTRI4KA.UNIONGANG.
Encoded date: UTC 2021-04-30 10:21:44
Writing application: mkvmerge v8.3.0 ('Over the Horizon') 32bit
Writing library: libebml v1.3.1 + libmatroska v1.4.2

Video
ID: 1
Format: AVC
Format/Info: Advanced Video Codec
Format profile: [email protected]
Format settings: CABAC / 5 Ref Frames
Format settings, CABAC: Yes
Format settings, Reference frames: 5 frames
Codec ID: V_MPEG4/ISO/AVC
Duration: 1 h 35 min
Bit rate: 4 584 kb/s
Width: 1 912 pixels
Height: 792 pixels
Display aspect ratio: 2.40:1
Frame rate mode: Constant
Frame rate: 23.976 FPS
Color space: YUV
Chroma subsampling: 4:2:0
Bit depth: 8 bits
Scan type: Progressive
Bits/(Pixel*Frame): 0.126
Stream size: 3.06 GiB (89%)
Language: English
Default: Yes
Forced: No
Color range: Limited
Color primaries: BT.709
Transfer characteristics: BT.709
Matrix coefficients: BT.709

Audio #1
ID: 2
Format: AC-3
Format/Info: Audio Coding 3
Commercial name: Dolby Digital
Codec ID: A_AC3
Duration: 1 h 35 min
Bit rate mode: Constant
Bit rate: 192 kb/s
Channel(s): 2 channels
Channel layout: L R
Sampling rate: 48.0 kHz
Frame rate: 31.250 FPS (1536 SPF)
Compression mode: Lossy
Delay relative to video: -42 ms
Stream size: 131 MiB (4%)
Title: DUB (IVI)
Language: Russian
Service kind: Complete Main
Default: Yes
Forced: Yes

Audio #2
ID: 3
Format: AC-3
Format/Info: Audio Coding 3
Commercial name: Dolby Digital
Codec ID: A_AC3
Duration: 1 h 35 min
Bit rate mode: Constant
Bit rate: 384 kb/s
Channel(s): 6 channels
Channel layout: L R C LFE Ls Rs
Sampling rate: 48.0 kHz
Frame rate: 31.250 FPS (1536 SPF)
Compression mode: Lossy
Delay relative to video: -42 ms
Stream size: 262 MiB (7%)
Title: Original
Language: English
Service kind: Complete Main
Default: No
Forced: No

Text
ID: 4
Format: UTF-8
Codec ID: S_TEXT/UTF8
Codec ID/Info: UTF-8 Plain Text
Duration: 1 h 34 min
Bit rate: 100 b/s
Count of elements: 2181
Stream size: 69.5 KiB (0%)
Language: English
Default: Yes
Forced: No

Menu
00:00:00.000: en:1
00:10:30.714: en:2
00:20:38.613: en:3
00:30:17.817: en:4
00:40:16.331: en:5
00:50:55.887: en:6
01:00:42.390: en:7
01:11:27.617: en:8
01:21:13.034: en:9
01:30:47.817: en:9

Download
Для скачивания .torrent файлов необходима регистрация
Сайт не распространяет и не хранит электронные версии произведений, а лишь предоставляет доступ к создаваемому пользователями каталогу ссылок на торрент-файлы, которые содержат только списки хеш-сумм

Страница 1 из 1

Ответить на тему

   Похожие торренты   Торрент 




tracker_crontracker_crontracker_cron