Регистрация ·  Логин: Пароль: Запомнить   · Забыли пароль?




Ответить на тему
Статистика раздачи
Размер: 3.69 ГБ | Зарегистрирован: 31 май 2021, 15:57 | .torrent скачан: 0 раз(а), DHT: [ 0 ] раз(а)
Сидеров: [ 0  | 0 байт/сек ]   Личеров: [ 0  | 0 байт/сек ]   DHT: [ 0 / 0 ]
Автор Сообщение

Модератор

С нами: 2 года 3 месяца
Сообщения: 3142
Россия

Сообщение 31 май 2021, 15:57 

[Цитировать]

Информация о фильме
Название: Страна джунглей
Оригинальное название: Jungleland
Год выхода: 2019
Жанр: Драма
Режиссер: Макс Уинклер
В ролях: Чарли Ханнэм, Джонатан Мэйджерс, Джессика Барден, Джек О`Коннелл, Фрэн Кренц, Джон Каллам, Мередит Холцман, Оуэн Бурк, Ник Маллен, Джонно Уилсон

О фильме: Боксер по прозвищу Лев отправляется со своим братом и менеджером по совместительству Стэнли в дальнее путешествие по Штатам. Главные герои побывают во многих американских городах — все ради участия в последнем бое в карьере. Внезапно к родственному тандему присоединяется девушка по имени Скай. Попутчица привносит в поездку братьев драйв и экстрим, в основном в негативном оттенке.



Выпущено: Великобритания, США / Romulus Entertainment, Scott Free Productions
Продолжительность: 01:30:01
Озвучивание: Дублированное | iTunes

Файл
Формат: MKV
Качество: WEB-DL 1080p
Видео: MPEG-4 AVC, 5097 Кb/s, 1920x1034
Аудио #1: Russian: 48 kHz, AC3 Dolby Digital, 3/2 (L, C, R, l, r) + LFE ch, ~384 Kbps | DUB | iTunes
Аудио #2: English: 48 kHz, AC3 Dolby Digital, 3/2 (L, C, R, l, r) + LFE ch, ~384 Kbps | Original | iTunes
Субтитры: Russian (Forced, Full), Ukrainian (Full)
Дополнительно: Сохранены оригинальные чаптеры.

Релиз группы: &

Complete name : Strana.dzhungley.2019.WEB-DL.1080p.ELEKTRI4KA.UNIONGANG.mkv
Format : Matroska
Format version : Version 4
File size : 3.69 GiB
Duration : 1 h 30 min
Overall bit rate : 5 865 kb/s
Movie name : Strana.dzhungley.2019.WEB-DL.1080p.ELEKTRI4KA.UNIONGANG.
Encoded date : UTC 2021-04-29 19:15:24
Writing application : mkvmerge v8.3.0 ('Over the Horizon') 32bit
Writing library : libebml v1.3.1 + libmatroska v1.4.2

Video
ID : 1
Format : AVC
Format/Info : Advanced Video Codec
Format profile : [email protected]
Format settings : CABAC / 4 Ref Frames
Format settings, CABAC : Yes
Format settings, Reference frames : 4 frames
Codec ID : V_MPEG4/ISO/AVC
Duration : 1 h 30 min
Bit rate : 5 097 kb/s
Width : 1 920 pixels
Height : 1 034 pixels
Display aspect ratio : 1.85:1
Frame rate mode : Constant
Frame rate : 23.976 FPS
Color space : YUV
Chroma subsampling : 4:2:0
Bit depth : 8 bits
Scan type : Progressive
Bits/(Pixel*Frame) : 0.107
Stream size : 3.21 GiB (87%)
Language : English
Default : Yes
Forced : No
Color range : Limited
Color primaries : BT.709
Transfer characteristics : BT.709
Matrix coefficients : BT.709

Audio #1
ID : 2
Format : AC-3
Format/Info : Audio Coding 3
Commercial name : Dolby Digital
Codec ID : A_AC3
Duration : 1 h 29 min
Bit rate mode : Constant
Bit rate : 384 kb/s
Channel(s) : 6 channels
Channel layout : L R C LFE Ls Rs
Sampling rate : 48.0 kHz
Frame rate : 31.250 FPS (1536 SPF)
Compression mode : Lossy
Stream size : 247 MiB (7%)
Title : DUB (iTunes)
Language : Russian
Service kind : Complete Main
Default : Yes
Forced : Yes

Audio #2
ID : 3
Format : AC-3
Format/Info : Audio Coding 3
Commercial name : Dolby Digital
Codec ID : A_AC3
Duration : 1 h 29 min
Bit rate mode : Constant
Bit rate : 384 kb/s
Channel(s) : 6 channels
Channel layout : L R C LFE Ls Rs
Sampling rate : 48.0 kHz
Frame rate : 31.250 FPS (1536 SPF)
Compression mode : Lossy
Stream size : 247 MiB (7%)
Title : Original
Language : English
Service kind : Complete Main
Default : No
Forced : No

Text #1
ID : 4
Format : UTF-8
Codec ID : S_TEXT/UTF8
Codec ID/Info : UTF-8 Plain Text
Duration : 1 h 25 min
Bit rate : 0 b/s
Count of elements : 8
Stream size : 301 Bytes (0%)
Title : Forced
Language : Russian
Default : Yes
Forced : No

Text #2
ID : 5
Format : UTF-8
Codec ID : S_TEXT/UTF8
Codec ID/Info : UTF-8 Plain Text
Duration : 1 h 29 min
Bit rate : 84 b/s
Count of elements : 1188
Stream size : 55.1 KiB (0%)
Title : Full
Language : Russian
Default : No
Forced : No

Text #3
ID : 6
Format : UTF-8
Codec ID : S_TEXT/UTF8
Codec ID/Info : UTF-8 Plain Text
Duration : 1 h 29 min
Bit rate : 78 b/s
Count of elements : 1189
Stream size : 51.2 KiB (0%)
Title : Full
Language : Ukrainian
Default : No
Forced : No

Menu
00:00:00.000 : en:1
00:06:02.195 : en:2
00:13:39.860 : en:3
00:20:03.076 : en:4
00:32:05.506 : en:5
00:41:27.526 : en:6
00:51:34.507 : en:7
01:02:06.972 : en:8
01:08:18.593 : en:9
01:15:43.287 : en:10
01:26:02.906 : en:11



Download
Для скачивания .torrent файлов необходима регистрация
Сайт не распространяет и не хранит электронные версии произведений, а лишь предоставляет доступ к создаваемому пользователями каталогу ссылок на торрент-файлы, которые содержат только списки хеш-сумм

Страница 1 из 1

Ответить на тему

   Похожие торренты   Торрент 




tracker_crontracker_crontracker_cron