Регистрация ·  Логин: Пароль: Запомнить   · Забыли пароль?




Ответить на тему
Статистика раздачи
Размер: 7.33 ГБ | Зарегистрирован: 31 май 2021, 15:56 | .torrent скачан: 0 раз(а), DHT: [ 0 ] раз(а)
Сидеров: [ 0  | 0 байт/сек ]   Личеров: [ 0  | 0 байт/сек ]   DHT: [ 0 / 0 ]
Автор Сообщение

Модератор

С нами: 2 года 3 месяца
Сообщения: 3202
Россия

Сообщение 31 май 2021, 15:56 

[Цитировать]


Информация о фильме
Название: Мой год в Нью-Йорке / Мой год Сэлинджера
Оригинальное название: My Salinger Year
Год выхода: 2020
Жанр: мелодрама, комедия
Режиссер: Филипп Фалардо
В ролях: Маргарет Куэлли, Сигурни Уивер, Дуглас Бут, Шана Керслэйк, Брайан Ф. О`Бирн, Колм Фиор, Теодор Пеллерен, Яник Трусдейл, Хамза Хак, Лени Паркер

О фильме: Нью-Йорк 90-х, в нем бурлит жизнь, он как магнит притягивает молодых и талантливых. Юной Джоанн выпадает удача — она устраивается ассистенткой в литературное агентство, оказываясь в самом сердце богемного Нью-Йорка. Втайне она мечтает писать и теперь разрывается между карьерой, призванием и мужчинами. Разобраться во всем этом ей помогает голос в телефонной трубке — великий Дж. Д. Сэлинджер, который как мудрый старый профессор готовит ее к финальному экзамену во взрослую жизнь.



Страна: Канада, Ирландия
Студия: micro_scope, Parallel Film Productions
Продолжительность: 01:41:14
Озвучивание: Дублированный | iTunes

Файл
Формат: MKV (x264)
Качество: WEB-DL 1080p | AMZN
Видео: MPEG-4 AVC, 9345 Kb/s, 1920x1040, 23.976 fps
Аудио 1: 48 kHz, AC3 Dolby Digital, 3/2 (L, C, R, l, r) + LFE ch, ~384 kbps | русский
Аудио 2: 48 kHz, E-AC3 Dolby Digital, 3/2 (L, C, R, l, r) + LFE ch, ~640 kbps | английский
Субтитры: English
Дополнительно: нет

Релиз группы &

My.Salinger.Year.2020.1080p.AMZN.WEB-DL.ELEKTRI4KA.UNIONGANG.mkv
Format : Matroska
Format version : Version 4
File size : 7.33 GiB
Duration : 1 h 41 min
Overall bit rate : 10.4 Mb/s
Movie name : My Salinger Year (2020) - ELEKTRI4KA
Encoded date : UTC 2021-04-27 17:30:02
Writing application : mkvmerge v52.0.0 ('Secret For The Mad') 64-bit
Writing library : libebml v1.4.1 + libmatroska v1.6.2

Video
ID : 1
Format : AVC
Format/Info : Advanced Video Codec
Format profile : [email protected]
Format settings : CABAC / 4 Ref Frames
Format settings, CABAC : Yes
Format settings, Reference : 4 frames
Codec ID : V_MPEG4/ISO/AVC
Duration : 1 h 41 min
Bit rate mode : Constant
Bit rate : 9 345 kb/s
Nominal bit rate : 10 000 kb/s
Width : 1 920 pixels
Height : 1 040 pixels
Display aspect ratio : 1.85:1
Frame rate mode : Constant
Frame rate : 23.976 (24000/1001) FPS
Color space : YUV
Chroma subsampling : 4:2:0
Bit depth : 8 bits
Scan type : Progressive
Bits/(Pixel*Frame) : 0.195
Stream size : 6.61 GiB (90%)
Title : My Salinger Year (2020) - ELEKTRI4KA
Default : Yes
Forced : No
Color range : Limited
Color primaries : BT.709
Transfer characteristics : BT.709
Matrix coefficients : BT.709

Audio #1
ID : 2
Format : AC-3
Format/Info : Audio Coding 3
Commercial name : Dolby Digital
Codec ID : A_AC3
Duration : 1 h 41 min
Bit rate mode : Constant
Bit rate : 384 kb/s
Channel(s) : 6 channels
Channel layout : L R C LFE Ls Rs
Sampling rate : 48.0 kHz
Frame rate : 31.250 FPS (1536 SPF)
Bit depth : 16 bits
Compression mode : Lossy
Stream size : 278 MiB (4%)
Title : Dub (iTunes) - ELEKTRI4KA
Service kind : Complete Main
Default : Yes
Forced : No

Audio #2
ID : 3
Format : E-AC-3
Format/Info : Enhanced AC-3
Commercial name : Dolby Digital Plus
Codec ID : A_EAC3
Duration : 1 h 41 min
Bit rate mode : Constant
Bit rate : 640 kb/s
Channel(s) : 6 channels
Channel layout : L R C LFE Ls Rs
Sampling rate : 48.0 kHz
Frame rate : 31.250 FPS (1536 SPF)
Compression mode : Lossy
Stream size : 463 MiB (6%)
Title : Original
Language : English
Service kind : Complete Main
Default : No
Forced : No

Text #1
ID : 4
Format : UTF-8
Codec ID : S_TEXT/UTF8
Codec ID/Info : UTF-8 Plain Text
Duration : 1 h 35 min
Bit rate : 65 b/s
Count of elements : 1450
Stream size : 45.9 KiB (0%)
Language : English
Default : No
Forced : No

Text #2
ID : 5
Format : UTF-8
Codec ID : S_TEXT/UTF8
Codec ID/Info : UTF-8 Plain Text
Duration : 1 h 36 min
Bit rate : 68 b/s
Count of elements : 1529
Stream size : 48.3 KiB (0%)
Title : SDH
Language : English
Default : No
Forced : No



Download
Для скачивания .torrent файлов необходима регистрация
Сайт не распространяет и не хранит электронные версии произведений, а лишь предоставляет доступ к создаваемому пользователями каталогу ссылок на торрент-файлы, которые содержат только списки хеш-сумм

Страница 1 из 1

Ответить на тему

   Похожие торренты   Торрент 




tracker_crontracker_cron