Регистрация ·  Логин: Пароль: Запомнить   · Забыли пароль?




Ответить на тему
Статистика раздачи
Размер: 14.31 ГБ | Зарегистрирован: 31 май 2021, 15:56 | .torrent скачан: 0 раз(а), DHT: [ 0 ] раз(а)
Сидеров: [ 0  | 0 байт/сек ]   Личеров: [ 0  | 0 байт/сек ]   DHT: [ 0 / 0 ]
Автор Сообщение

Модератор

С нами: 2 года 3 месяца
Сообщения: 3142
Россия

Сообщение 31 май 2021, 15:56 

[Цитировать]

Информация о фильме
Название: Отчаянный ход
Оригинальное название: The Last Full Measure
Год выхода: 2019
Жанр: Драма, военный, история
Режиссер: Тодд Робинсон
В ролях: Элисон Судол, Сэмюэл Л. Джексон, Кристофер Пламмер, Дайан Лэдд, Себастьян Стэн, Брэдли Уитфорд, Эд Харрис, Эми Мэдиган, Джереми Ирвин, Питер Фонда, Джон Сэвидж, Уильям Хёрт

О фильме: Военный медик Уильям Питсенбаргер в ходе специальной операции во время войны во Вьетнаме спас более 60 сослуживцев. Несмотря на героические действия, ему не был присуждён орден Почёта. 30 лет спустя работнику Пентагона поручают разобраться, почему награда не нашла героя. В ходе расследования он натыкается на заговор, покрывающий ошибку высшего руководства армии США.



Выпущено: США / Foresight Unlimited, Provocator, SSS Entertainment
Продолжительность: 01:55:12
Озвучивание: Дублированное | iTunes

Файл
Формат: MKV
Качество: BDRip 1080p
Видео: MPEG-4 AVC, 16.8 Мb/s, 1920x802
Аудио #1: Russian: 48 kHz, AC3 Dolby Digital, 3/2 (L, C, R, l, r) + LFE ch, ~384 Kbps | DUB | iTunes
Аудио #2: English: 48 kHz, AC3 Dolby Digital, 3/2 (L, C, R, l, r) + LFE ch, ~640 Kbps | Original
Субтитры: Нет
Дополнительно: Сохранены оригинальные чаптеры.

Релиз группы: &

Complete name: Otchayannyiy.hod.2019.1080p.BluRay.ELEKTRI4KA.UNIONGANG.mkv
Format: Matroska
Format version: Version 4
File size: 14.3 GiB
Duration: 1 h 55 min
Overall bit rate: 17.8 Mb/s
Movie name: Otchayannyiy.hod.2019.1080p.BluRay.ELEKTRI4KA.UNIONGANG.
Encoded date: UTC 2021-04-26 19:58:41
Writing application: mkvmerge v8.3.0 ('Over the Horizon') 32bit
Writing library: libebml v1.3.1 + libmatroska v1.4.2

Video
ID: 1
Format: AVC
Format/Info: Advanced Video Codec
Format profile: [email protected]
Format settings: CABAC / 5 Ref Frames
Format settings, CABAC: Yes
Format settings, Reference frames: 5 frames
Codec ID: V_MPEG4/ISO/AVC
Duration: 1 h 55 min
Bit rate: 16.8 Mb/s
Width: 1 920 pixels
Height: 802 pixels
Display aspect ratio: 2.40:1
Frame rate mode: Constant
Frame rate: 24.000 FPS
Color space: YUV
Chroma subsampling: 4:2:0
Bit depth: 8 bits
Scan type: Progressive
Bits/(Pixel*Frame): 0.453
Stream size: 13.5 GiB (94%)
Writing library: x264 core 159 r2991+49 ~ Encoded by Mocunaman in Portugal
Encoding settings: cabac=1 / ref=5 / deblock=1:-3:-3 / analyse=0x3:0x113 / me=umh / subme=10 / psy=1 / fade_compensate=0.00 / psy_rd=1.00:0.00 / mixed_ref=1 / me_range=32 / chroma_me=1 / trellis=2 / 8x8dct=1 / cqm=0 / deadzone=21, 11 / fast_pskip=0 / chroma_qp_offset=-2 / threads=25 / lookahead_threads=6 / sliced_threads=0 / nr=0 / decimate=0 / interlaced=0 / bluray_compat=0 / constrained_intra=0 / fgo=0 / bframes=12 / b_pyramid=2 / b_adapt=2 / b_bias=0 / direct=3 / weightb=1 / open_gop=0 / weightp=2 / keyint=250 / keyint_min=24 / scenecut=40 / intra_refresh=0 / rc_lookahead=60 / rc=crf / mbtree=0 / crf=15.0000 / qcomp=0.60 / qpmin=0:0:0 / qpmax=69:69:69 / qpstep=4 / vbv_maxrate=62500 / vbv_bufsize=78125 / crf_max=0.0 / nal_hrd=none / filler=0 / ip_ratio=1.30 / pb_ratio=1.20 / aq=3:0.80 / aq-sensitivity=10.00 / aq-factor=1.00:1.00:1.00 / aq2=0 / aq3=0
Language: English
Default: Yes
Forced: No
Color range: Limited
Color primaries: BT.709
Transfer characteristics: BT.709
Matrix coefficients: BT.709

Audio #1
ID: 2
Format: AC-3
Format/Info: Audio Coding 3
Commercial name: Dolby Digital
Codec ID: A_AC3
Duration: 1 h 55 min
Bit rate mode: Constant
Bit rate: 384 kb/s
Channel(s): 6 channels
Channel layout: L R C LFE Ls Rs
Sampling rate: 48.0 kHz
Frame rate: 31.250 FPS (1536 SPF)
Compression mode: Lossy
Stream size: 316 MiB (2%)
Title: DUB (iTunes)
Language: Russian
Service kind: Complete Main
Default: Yes
Forced: Yes

Audio #2
ID: 3
Format: AC-3
Format/Info: Audio Coding 3
Commercial name: Dolby Digital
Codec ID: A_AC3
Duration: 1 h 55 min
Bit rate mode: Constant
Bit rate: 640 kb/s
Channel(s): 6 channels
Channel layout: L R C LFE Ls Rs
Sampling rate: 48.0 kHz
Frame rate: 31.250 FPS (1536 SPF)
Compression mode: Lossy
Stream size: 527 MiB (4%)
Title: Original
Language: English
Service kind: Complete Main
Default: No
Forced: No

Menu
00:00:00.000: en:Chapter 01
00:12:14.083: en:Chapter 02
00:20:48.250: en:Chapter 03
00:29:30.542: en:Chapter 04
00:39:53.583: en:Chapter 05
00:49:15.792: en:Chapter 06
01:00:08.375: en:Chapter 07
01:09:24.792: en:Chapter 08
01:20:04.958: en:Chapter 09
01:30:16.375: en:Chapter 10
01:41:43.250: en:Chapter 11
01:50:05.709: en:Chapter 12

Download
Для скачивания .torrent файлов необходима регистрация
Сайт не распространяет и не хранит электронные версии произведений, а лишь предоставляет доступ к создаваемому пользователями каталогу ссылок на торрент-файлы, которые содержат только списки хеш-сумм

Страница 1 из 1

Ответить на тему

   Похожие торренты   Торрент 




tracker_crontracker_cron