Регистрация ·  Логин: Пароль: Запомнить   · Забыли пароль?




Ответить на тему
Статистика раздачи
Размер: 3.21 ГБ | Зарегистрирован: 31 май 2021, 15:56 | .torrent скачан: 0 раз(а), DHT: [ 0 ] раз(а)
Сидеров: [ 0  | 0 байт/сек ]   Личеров: [ 0  | 0 байт/сек ]   DHT: [ 0 / 0 ]
Автор Сообщение

Модератор

С нами: 2 года 3 месяца
Сообщения: 3202
Россия

Сообщение 31 май 2021, 15:56 

[Цитировать]

Информация о фильме
Название: Рамбл Стрип
Оригинальное название: Rumble Strip
Год выхода: 2019
Жанр: Приключения
Режиссер: Джек Литман
В ролях: Джек Литман, Анна Хайа, Марк Адэйр-Риос, Ричард Азурдиа, Джон Бейдер, Пэрис Бенжамин, Джонатан Кехилл, Дж. Марвин Кэмпбелл

О фильме: Когда похищают возлюбленную бывшего наемника, он должен спасти ее от тиранического лидера в постапокалиптическом, жутком и токсичном мире будущего.



Выпущено: США
Продолжительность: 01:22:57
Озвучивание: Профессиональное (многоголосое) | IVI

Файл
Формат: MKV
Качество: WEB-DL 1080p
Видео: MPEG-4 AVC, 5160 Kb/s, 1920x1080
Аудио: Russian: 48 kHz, AC3 Dolby Digital, 3/2 (L, C, R, l, r) + LFE ch, ~384 Kbps
Субтитры: Нет
Дополнительно: Сохранены оригинальные чаптеры.

Релиз группы: &

Complete name: Rambl.Strip.2019.WEB-DL.1080p.ELEKTRI4KA.UNIONGANG.mkv
Format: Matroska
Format version: Version 4
File size: 3.21 GiB
Duration: 1 h 22 min
Overall bit rate: 5 546 kb/s
Movie name: Rambl.Strip.2019.WEB-DL.1080p.ELEKTRI4KA.UNIONGANG
Encoded date: UTC 2021-04-25 19:45:03
Writing application: mkvmerge v8.3.0 ('Over the Horizon') 32bit
Writing library: libebml v1.3.1 + libmatroska v1.4.2

Video
ID: 1
Format: AVC
Format/Info: Advanced Video Codec
Format profile: [email protected]
Format settings: CABAC / 4 Ref Frames
Format settings, CABAC: Yes
Format settings, Reference frames: 4 frames
Codec ID: V_MPEG4/ISO/AVC
Duration: 1 h 22 min
Bit rate: 5 160 kb/s
Width: 1 920 pixels
Height: 1 080 pixels
Display aspect ratio: 16:9
Frame rate mode: Constant
Frame rate: 24.000 FPS
Color space: YUV
Chroma subsampling: 4:2:0
Bit depth: 8 bits
Scan type: Progressive
Bits/(Pixel*Frame): 0.104
Stream size: 2.99 GiB (93%)
Language: English
Default: Yes
Forced: No
Color range: Limited
Color primaries: BT.709
Transfer characteristics: BT.709
Matrix coefficients: BT.709

Audio
ID: 2
Format: AC-3
Format/Info: Audio Coding 3
Commercial name: Dolby Digital
Codec ID: A_AC3
Duration: 1 h 22 min
Bit rate mode: Constant
Bit rate: 384 kb/s
Channel(s): 6 channels
Channel layout: L R C LFE Ls Rs
Sampling rate: 48.0 kHz
Frame rate: 31.250 FPS (1536 SPF)
Compression mode: Lossy
Delay relative to video: -42 ms
Stream size: 228 MiB (7%)
Title: MVO (IVI)
Language: Russian
Service kind: Complete Main
Default: Yes
Forced: No

Menu
00:00:00.000: en:Глава 1
00:07:37.583: en:Глава 2
00:16:13.083: en:Глава 3
00:25:00.666: en:Глава 4
00:32:56.874: en:Глава 5
00:40:20.582: en:Глава 6
00:47:17.748: en:Глава 7
00:54:35.123: en:Глава 8
01:01:04.373: en:Глава 9
01:09:02.914: en:Глава 10
01:15:32.372: en:Глава 11

Download
Для скачивания .torrent файлов необходима регистрация
Сайт не распространяет и не хранит электронные версии произведений, а лишь предоставляет доступ к создаваемому пользователями каталогу ссылок на торрент-файлы, которые содержат только списки хеш-сумм

Страница 1 из 1

Ответить на тему

   Похожие торренты   Торрент 




tracker_crontracker_cron