Регистрация ·  Логин: Пароль: Запомнить   · Забыли пароль?




Ответить на тему
Статистика раздачи
Размер: 5.2 ГБ | Зарегистрирован: 31 май 2021, 15:56 | .torrent скачан: 0 раз(а), DHT: [ 0 ] раз(а)
Сидеров: [ 0  | 0 байт/сек ]   Личеров: [ 0  | 0 байт/сек ]   DHT: [ 0 / 0 ]
Автор Сообщение

Модератор

С нами: 2 года 3 месяца
Сообщения: 3202
Россия

Сообщение 31 май 2021, 15:56 

[Цитировать]

Информация о фильме
Название: Самоизоляция / Час волка
Оригинальное название: The Wolf Hour
Год выхода: 2019
Жанр: Триллер, драма, детектив
Режиссер: Алистэр Бэнкс Гриффин
В ролях: Наоми Уоттс, Дженнифер Или, Эмори Коэн, Джереми Бобб, Бреннан Браун, Келвин Харрисон, Марица Веер, Педро Халливуд, Джастин Кларк, Энджел Кристиан Роман

О фильме: После трагических событий, связанных с последней книгой, Джун Ли - известная писательница и лидер антиэлитарного движения США добровольно становится затворницей в своей квартире в Южном Бронксе. На несколько лет она выпадает из новостной повестки и ведёт такую не слишком радостную жизнь, всячески стараясь изолироваться от окружающих. А за её окнами разворачиваются пугающие и невесёлые события. Жаркое лето 1977 года становится таким не только из-за температуры. Страсти в городе накаляются и кажется вот-вот вспыхнет пожар массовых беспорядков.



Выпущено: США / Automatik, Bradley Pilz Productions, HanWay Films
Продолжительность: 01:38:52
Озвучивание: Профессиональное (многоголосое) | IVI

Файл
Формат: MKV
Качество: BDRip 720p
Видео: MPEG-4 AVC, 6500 Kb/s, 1280x536
Аудио #1: Russian: 48 kHz, AC3 Dolby Digital, 3/2 (L, C, R, l, r) + LFE ch, ~384 Kbps | MVO | IVI
Аудио #2: English: 48 kHz, AC3 Dolby Digital, 3/2 (L, C, R, l, r) + LFE ch, ~640 Kbps | Original
Субтитры: Нет
Дополнительно: Сохранены оригинальные чаптеры.

Релиз группы: & @ Fishe

Complete name : Samoizolyatsiya.2019.720p.BluRay.ELEKTRI4KA.UNIONGANG.mkv
Format : Matroska
Format version : Version 4
File size : 5.20 GiB
Duration : 1 h 38 min
Overall bit rate : 7 524 kb/s
Movie name : Samoizolyatsiya.2019.720p.BluRay.ELEKTRI4KA.UNIONGANG
Encoded date : UTC 2021-04-25 10:37:25
Writing application : mkvmerge v8.3.0 ('Over the Horizon') 32bit
Writing library : libebml v1.3.1 + libmatroska v1.4.2

Video
ID : 1
Format : AVC
Format/Info : Advanced Video Codec
Format profile : [email protected]
Format settings : CABAC / 12 Ref Frames
Format settings, CABAC : Yes
Format settings, Reference frames : 12 frames
Codec ID : V_MPEG4/ISO/AVC
Duration : 1 h 38 min
Bit rate : 6 500 kb/s
Width : 1 280 pixels
Height : 536 pixels
Display aspect ratio : 2.40:1
Frame rate mode : Constant
Frame rate : 23.976 (24000/1001) FPS
Color space : YUV
Chroma subsampling : 4:2:0
Bit depth : 8 bits
Scan type : Progressive
Bits/(Pixel*Frame) : 0.395
Stream size : 4.49 GiB (86%)
Title : Rip from Fishe
Writing library : x264 core 157 r2958 57baac4
Encoding settings : cabac=1 / ref=12 / deblock=1:-3:-3 / analyse=0x3:0x133 / me=umh / subme=10 / psy=1 / psy_rd=1.00:0.00 / mixed_ref=1 / me_range=32 / chroma_me=1 / trellis=2 / 8x8dct=1 / cqm=0 / deadzone=21, 11 / fast_pskip=0 / chroma_qp_offset=-2 / threads=49 / lookahead_threads=4 / sliced_threads=0 / nr=0 / decimate=0 / interlaced=0 / bluray_compat=0 / constrained_intra=0 / bframes=8 / b_pyramid=2 / b_adapt=2 / b_bias=0 / direct=3 / weightb=0 / open_gop=0 / weightp=2 / keyint=240 / keyint_min=24 / scenecut=40 / intra_refresh=0 / rc=2pass / mbtree=0 / bitrate=6500 / ratetol=1.0 / qcomp=0.60 / qpmin=0 / qpmax=69 / qpstep=4 / cplxblur=20.0 / qblur=0.5 / ip_ratio=1.40 / pb_ratio=1.30 / aq=1:1.00
Default : Yes
Forced : No
Color range : Limited
Color primaries : BT.709
Transfer characteristics : BT.709
Matrix coefficients : BT.709

Audio #1
ID : 2
Format : AC-3
Format/Info : Audio Coding 3
Commercial name : Dolby Digital
Codec ID : A_AC3
Duration : 1 h 38 min
Bit rate mode : Constant
Bit rate : 384 kb/s
Channel(s) : 6 channels
Channel layout : L R C LFE Ls Rs
Sampling rate : 48.0 kHz
Frame rate : 31.250 FPS (1536 SPF)
Compression mode : Lossy
Stream size : 271 MiB (5%)
Title : MVO (IVI)
Language : Russian
Service kind : Complete Main
Default : Yes
Forced : Yes

Audio #2
ID : 3
Format : AC-3
Format/Info : Audio Coding 3
Commercial name : Dolby Digital
Codec ID : A_AC3
Duration : 1 h 38 min
Bit rate mode : Constant
Bit rate : 640 kb/s
Channel(s) : 6 channels
Channel layout : L R C LFE Ls Rs
Sampling rate : 48.0 kHz
Frame rate : 31.250 FPS (1536 SPF)
Compression mode : Lossy
Stream size : 453 MiB (9%)
Title : Original
Language : English
Service kind : Complete Main
Default : No
Forced : No

Menu
00:00:00.000 : :Chapter 1
00:09:40.538 : :Chapter 2
00:18:53.966 : :Chapter 3
00:25:40.163 : :Chapter 4
00:35:27.291 : :Chapter 5
00:45:40.028 : :Chapter 6
00:55:50.305 : :Chapter 7
01:00:45.558 : :Chapter 8
01:11:58.355 : :Chapter 9
01:20:20.315 : :Chapter 10
01:27:36.459 : :Chapter 11
01:33:14.171 : :Chapter 12
01:38:51.926 : :Chapter 13

Download
Для скачивания .torrent файлов необходима регистрация
Сайт не распространяет и не хранит электронные версии произведений, а лишь предоставляет доступ к создаваемому пользователями каталогу ссылок на торрент-файлы, которые содержат только списки хеш-сумм

Страница 1 из 1

Ответить на тему

   Похожие торренты   Торрент 




tracker_crontracker_cron