Регистрация ·  Логин: Пароль: Запомнить   · Забыли пароль?




Ответить на тему
Статистика раздачи
Размер: 5.11 ГБ | Зарегистрирован: 31 май 2021, 15:55 | .torrent скачан: 0 раз(а), DHT: [ 0 ] раз(а)
Сидеров: [ 0  | 0 байт/сек ]   Личеров: [ 0  | 0 байт/сек ]   DHT: [ 0 / 0 ]
Автор Сообщение

Модератор

С нами: 2 года 3 месяца
Сообщения: 3142
Россия

Сообщение 31 май 2021, 15:55 

[Цитировать]

Информация о фильме
Название: Выбивая долги
Оригинальное название: The Tax Collector
Год выхода: 2020
Жанр: Криминал, боевик
Режиссер: Дэвид Эйр
В ролях: Бобби Сото, Синтия Кармона, Шайа ЛаБаф, Хосе Конехо Мартин, Шайенн Рэй Эрнандес, Кле Слоун, Ричард Мескита, Джордж Лопес, Брайан Мартин Ортега, Аалайя Лопес

О фильме: Выбивая черный нал из должников, два коллектора перешли дорогу главе наркокартеля, практикующему шаманство. Спровоцировав конфликт между двумя бандами, который может обернуться кровавой бойней, коллекторы поставили под угрозу жизни своих семей.



Выпущено: США / Cedar Park Entertainment, Cross Creek Pictures, Faster Horse Pictures
Продолжительность: 01:35:15
Озвучивание #1: Дублированное | Русский язык | iTunes
Озвучивание #2: Дублированное | Украинский язык

Файл
Формат: MKV
Качество: BDRip 720p
Видео: MPEG-4 AVC, 6467 Кb/s, 1280x692
Аудио #1: Russian: 48 kHz, AC3 Dolby Digital, 3/2 (L, C, R, l, r) + LFE ch, ~384 Kbps | DUB | iTunes
Аудио #2: Ukrainian: 48 kHz, AC3 Dolby Digital, 2/0 (L, R) ch, ~192 Kbps
Аудио #3: English: 48 kHz, Enhanced AC3 Dolby Digital, 3/2 (L, C, R, l, r) + LFE ch, ~640 Kbps | Original
Субтитры: Russian (Forced), English (Forced, Full)
Дополнительно: Сохранены оригинальные чаптеры.

Релиз группы: &

Complete name : Vyibivaya.dolgi.2020.720p.BluRay.ELEKTRI4KA.UNIONGANG.mkv
Format : Matroska
Format version : Version 4
File size : 5.11 GiB
Duration : 1 h 35 min
Overall bit rate : 7 682 kb/s
Movie name : Vyibivaya.dolgi.2020.720p.BluRay.ELEKTRI4KA.UNIONGANG.
Encoded date : UTC 2021-04-24 20:39:34
Writing application : mkvmerge v8.3.0 ('Over the Horizon') 32bit
Writing library : libebml v1.3.1 + libmatroska v1.4.2

Video
ID : 1
Format : AVC
Format/Info : Advanced Video Codec
Format profile : [email protected]
Format settings : CABAC / 9 Ref Frames
Format settings, CABAC : Yes
Format settings, Reference frames : 9 frames
Codec ID : V_MPEG4/ISO/AVC
Duration : 1 h 35 min
Bit rate : 6 467 kb/s
Width : 1 280 pixels
Height : 692 pixels
Display aspect ratio : 1.85:1
Frame rate mode : Constant
Frame rate : 24.000 FPS
Color space : YUV
Chroma subsampling : 4:2:0
Bit depth : 8 bits
Scan type : Progressive
Bits/(Pixel*Frame) : 0.304
Stream size : 4.30 GiB (84%)
Writing library : x264 core 161 r3018+53 ~ Encoded by Mocunaman in Portugal
Encoding settings : cabac=1 / ref=9 / deblock=1:-3:-3 / analyse=0x3:0x113 / me=umh / subme=11 / psy=1 / fade_compensate=0.00 / psy_rd=1.00:0.00 / mixed_ref=1 / me_range=32 / chroma_me=1 / trellis=2 / 8x8dct=1 / cqm=0 / deadzone=21,11 / fast_pskip=0 / chroma_qp_offset=-2 / threads=22 / lookahead_threads=3 / sliced_threads=0 / nr=0 / decimate=0 / interlaced=0 / bluray_compat=0 / constrained_intra=0 / fgo=0 / bframes=8 / b_pyramid=2 / b_adapt=2 / b_bias=0 / direct=3 / weightb=1 / open_gop=0 / weightp=2 / keyint=250 / keyint_min=24 / scenecut=40 / intra_refresh=0 / rc_lookahead=60 / rc=crf / mbtree=0 / crf=17.0000 / qcomp=0.65 / qpmin=0:0:0 / qpmax=69:69:69 / qpstep=4 / vbv_maxrate=62500 / vbv_bufsize=78125 / crf_max=0.0 / nal_hrd=none / filler=0 / ip_ratio=1.30 / pb_ratio=1.20 / aq=3:0.90 / aq-sensitivity=10.00 / aq-factor=1.00:1.00:1.00 / aq2=0 / aq3=0 / zones=14828,15740,crf=16.5/15908,17910,crf=16.5/25206,26862,crf=16.5/28350,30366,crf=16.5/30366,59365,crf=16.5/61117,76829,crf=16.5/80261,85445,crf=16/103229,129965,crf=16.5
Language : English
Default : Yes
Forced : No
Color range : Limited
Color primaries : BT.709
Transfer characteristics : BT.709
Matrix coefficients : BT.709

Audio #1
ID : 2
Format : AC-3
Format/Info : Audio Coding 3
Commercial name : Dolby Digital
Codec ID : A_AC3
Duration : 1 h 35 min
Bit rate mode : Constant
Bit rate : 384 kb/s
Channel(s) : 6 channels
Channel layout : L R C LFE Ls Rs
Sampling rate : 48.0 kHz
Frame rate : 31.250 FPS (1536 SPF)
Compression mode : Lossy
Stream size : 262 MiB (5%)
Title : DUB (iTunes)
Language : Russian
Service kind : Complete Main
Default : Yes
Forced : Yes

Audio #2
ID : 3
Format : AC-3
Format/Info : Audio Coding 3
Commercial name : Dolby Digital
Codec ID : A_AC3
Duration : 1 h 35 min
Bit rate mode : Constant
Bit rate : 192 kb/s
Channel(s) : 2 channels
Channel layout : L R
Sampling rate : 48.0 kHz
Frame rate : 31.250 FPS (1536 SPF)
Compression mode : Lossy
Stream size : 131 MiB (2%)
Title : DUB
Language : Ukrainian
Service kind : Complete Main
Default : No
Forced : No

Audio #3
ID : 4
Format : AC-3
Format/Info : Audio Coding 3
Commercial name : Dolby Digital
Codec ID : A_AC3
Duration : 1 h 35 min
Bit rate mode : Constant
Bit rate : 640 kb/s
Channel(s) : 6 channels
Channel layout : L R C LFE Ls Rs
Sampling rate : 48.0 kHz
Frame rate : 31.250 FPS (1536 SPF)
Compression mode : Lossy
Stream size : 436 MiB (8%)
Title : Original
Language : English
Service kind : Complete Main
Default : No
Forced : No

Text #1
ID : 5
Format : UTF-8
Codec ID : S_TEXT/UTF8
Codec ID/Info : UTF-8 Plain Text
Duration : 1 h 24 min
Bit rate : 5 b/s
Count of elements : 93
Stream size : 3.64 KiB (0%)
Title : Forced
Language : Russian
Default : Yes
Forced : No

Text #2
ID : 6
Format : UTF-8
Codec ID : S_TEXT/UTF8
Codec ID/Info : UTF-8 Plain Text
Duration : 1 h 14 min
Bit rate : 4 b/s
Count of elements : 81
Stream size : 2.21 KiB (0%)
Title : Forced
Language : English
Default : No
Forced : Yes

Text #3
ID : 7
Format : UTF-8
Codec ID : S_TEXT/UTF8
Codec ID/Info : UTF-8 Plain Text
Duration : 1 h 28 min
Bit rate : 60 b/s
Count of elements : 1278
Stream size : 39.1 KiB (0%)
Title : Full
Language : English
Default : No
Forced : No

Menu
00:00:00.000 : en:This Is Creeper
00:12:39.625 : en:I'm at Peace With That
00:25:28.041 : en:No Mistakes
00:36:20.541 : en:When I'm There, I'm God
00:48:56.083 : en:Rockstar Shooters
01:00:03.041 : en:Take It
01:15:27.833 : en:You Saved Me
01:30:18.791 : en:End Credits


Download
Для скачивания .torrent файлов необходима регистрация
Сайт не распространяет и не хранит электронные версии произведений, а лишь предоставляет доступ к создаваемому пользователями каталогу ссылок на торрент-файлы, которые содержат только списки хеш-сумм

Страница 1 из 1

Ответить на тему

   Похожие торренты   Торрент 




tracker_crontracker_cron