Регистрация ·  Логин: Пароль: Запомнить   · Забыли пароль?




Ответить на тему
Статистика раздачи
Размер: 7.99 ГБ | Зарегистрирован: 31 май 2021, 15:55 | .torrent скачан: 0 раз(а), DHT: [ 0 ] раз(а)
Сидеров: [ 0  | 0 байт/сек ]   Личеров: [ 0  | 0 байт/сек ]   DHT: [ 0 / 0 ]
Автор Сообщение

Модератор

С нами: 2 года 3 месяца
Сообщения: 3142
Россия

Сообщение 31 май 2021, 15:55 

[Цитировать]

Информация о фильме
Название: Выпусти её
Оригинальное название: Let Her Out
Год выхода: 2016
Жанр: Ужасы
Режиссер: Коуди Кэлахан
В ролях: Аланна Леверж, Нина Кири, Адам Кристи, Кейт Фентон, Мики Липка, Брук Хендерсон, Глен Рейд, Дебора Джейн Райлли Смит, Пол МакГиннис, Кайл Хитонен

О фильме: Едва оправившись после аварии, Хелен начинает испытывать странные галлюцинации и ночные кошмары. Впоследствии она узнаёт, что у неё есть доброкачественная опухоль, образовавшаяся из остатков «исчезнувшего» близнеца, поглощённого ей ещё в утробе матери. Самочувствие девушки начинает ухудшаться, а злой близнец всё больше вмешивается в жизнь и в личность Хелен.



Выпущено: США / Awesomeness Films
Продолжительность: 01:27:04
Озвучивание: Профессиональное (многоголосое) | IVI

Файл
Формат: MKV
Качество: BDRip 1080p
Видео: MPEG-4 AVC, 12.3 Мb/s, 1920x816
Аудио #1: Russian: 48 kHz, AC3 Dolby Digital, 2/0 (L, R) ch, ~192 Kbps | MVO | IVI
Аудио #2: English: 48 kHz, AC3 Dolby Digital, 3/2 (L, C, R, l, r) + LFE ch, ~640 Kbps | Original
Субтитры: Нет
Дополнительно: Сохранены оригинальные чаптеры.

Релиз группы: &

Complete name: Vyipusti.ee.2016.1080p.BluRay.ELEKTRI4KA.UNIONGANG.mkv
Format: Matroska
Format version: Version 4
File size: 7.99 GiB
Duration: 1 h 27 min
Overall bit rate: 13.1 Mb/s
Movie name: Vyipusti.ee.2016.1080p.BluRay.ELEKTRI4KA.UNIONGANG
Encoded date: UTC 2021-04-21 20:49:21
Writing application: mkvmerge v8.3.0 ('Over the Horizon') 64bit
Writing library: libebml v1.3.1 + libmatroska v1.4.2

Video
ID: 1
Format: AVC
Format/Info: Advanced Video Codec
Format profile: [email protected]
Format settings: CABAC / 5 Ref Frames
Format settings, CABAC: Yes
Format settings, Reference frames: 5 frames
Codec ID: V_MPEG4/ISO/AVC
Duration: 1 h 27 min
Bit rate: 12.3 Mb/s
Width: 1 920 pixels
Height: 816 pixels
Display aspect ratio: 2.35:1
Frame rate mode: Constant
Frame rate: 23.976 (24000/1001) FPS
Color space: YUV
Chroma subsampling: 4:2:0
Bit depth: 8 bits
Scan type: Progressive
Bits/(Pixel*Frame): 0.327
Stream size: 7.48 GiB (94%)
Writing library: x264 core 155 r2901 7d0ff22
Encoding settings: cabac=1 / ref=5 / deblock=1:-2:-2 / analyse=0x3:0x133 / me=umh / subme=10 / psy=1 / psy_rd=1.00:0.00 / mixed_ref=1 / me_range=48 / chroma_me=1 / trellis=2 / 8x8dct=1 / cqm=0 / deadzone=21, 11 / fast_pskip=1 / chroma_qp_offset=-2 / threads=6 / lookahead_threads=1 / sliced_threads=0 / nr=0 / decimate=1 / interlaced=0 / bluray_compat=0 / constrained_intra=0 / bframes=5 / b_pyramid=2 / b_adapt=2 / b_bias=0 / direct=3 / weightb=1 / open_gop=0 / weightp=2 / keyint=240 / keyint_min=24 / scenecut=40 / intra_refresh=0 / rc_lookahead=60 / rc=2pass / mbtree=1 / bitrate=12300 / ratetol=1.0 / qcomp=0.60 / qpmin=0 / qpmax=69 / qpstep=4 / cplxblur=20.0 / qblur=0.5 / vbv_maxrate=62500 / vbv_bufsize=78125 / nal_hrd=none / filler=0 / ip_ratio=1.40 / aq=1:1.00
Default: Yes
Forced: No
Color range: Limited
Color primaries: BT.709
Transfer characteristics: BT.709
Matrix coefficients: BT.709

Audio #1
ID: 2
Format: AC-3
Format/Info: Audio Coding 3
Commercial name: Dolby Digital
Codec ID: A_AC3
Duration: 1 h 27 min
Bit rate mode: Constant
Bit rate: 192 kb/s
Channel(s): 2 channels
Channel layout: L R
Sampling rate: 48.0 kHz
Frame rate: 31.250 FPS (1536 SPF)
Compression mode: Lossy
Stream size: 120 MiB (1%)
Title: MVO (IVI)
Language: Russian
Service kind: Complete Main
Default: Yes
Forced: No

Audio #2
ID: 3
Format: AC-3
Format/Info: Audio Coding 3
Commercial name: Dolby Digital
Codec ID: A_AC3
Duration: 1 h 27 min
Bit rate mode: Constant
Bit rate: 640 kb/s
Channel(s): 6 channels
Channel layout: L R C LFE Ls Rs
Sampling rate: 48.0 kHz
Frame rate: 31.250 FPS (1536 SPF)
Compression mode: Lossy
Stream size: 399 MiB (5%)
Title: Original
Language: English
Service kind: Complete Main
Default: No
Forced: No

Menu
00:00:00.000: :Chapter 1
00:13:21.301: :Chapter 2
00:20:25.725: :Chapter 3
00:27:09.795: :Chapter 4
00:33:33.678: :Chapter 5
00:42:07.692: :Chapter 6
00:51:19.076: :Chapter 7
00:57:41.458: :Chapter 8
01:06:45.668: :Chapter 9
01:14:29.298: :Chapter 10
01:24:20.556: :Chapter 11

Download
Для скачивания .torrent файлов необходима регистрация
Сайт не распространяет и не хранит электронные версии произведений, а лишь предоставляет доступ к создаваемому пользователями каталогу ссылок на торрент-файлы, которые содержат только списки хеш-сумм

Страница 1 из 1

Ответить на тему

   Похожие торренты   Торрент 




tracker_crontracker_cron