Регистрация ·  Логин: Пароль: Запомнить   · Забыли пароль?




Ответить на тему
Статистика раздачи
Размер: 10.85 ГБ | Зарегистрирован: 31 май 2021, 15:55 | .torrent скачан: 0 раз(а), DHT: [ 0 ] раз(а)
Сидеров: [ 0  | 0 байт/сек ]   Личеров: [ 0  | 0 байт/сек ]   DHT: [ 0 / 0 ]
Автор Сообщение

Модератор

С нами: 2 года 3 месяца
Сообщения: 3202
Россия

Сообщение 31 май 2021, 15:55 

[Цитировать]


Информация о фильме
Название: Первый король Рима
Оригинальное название: Il primo re
Год выхода: 2019
Жанр: Драма, история
Режиссер: Маттео Ровере
В ролях: Алессандро Борги, Алессио Лапиче, Фабрицио Ронджоне, Массимилиано Росси, Таня Гаррибба, Лоренцо Глейхесес, Винченцо Креа, Макс Малатеста, Фьоренцо Матту, Габриэль Монтези

О фильме:
События фильма, основанного на мифических преданиях, развиваются в середине VIII-го века до нашей эры вокруг Ромула и Рема — братьев-близнецов, которые работали пастухами и мирно жили возле реки Тибр. Однажды сильнейшее наводнение лишило братьев земли и сделало их пленниками, вынужденными принимать участие в жестоких поединках, где проигравших сжигают заживо. Так начинается легендарное путешествие близнецов, которым предстоит пройти через множество кровопролитных сражений и основать один из величайших городов в мировой истории — Рим.



Страна: Италия, Бельгия
Студия: Groenlandia, Rai Cinema, Gapbusters
Продолжительность: 02:07:22
Перевод: Профессиональный (многоголосый, закадровый) | IVI

Файл
Формат: MKV
Качество: BDRip 1080p
Видео: MPEG-4 AVC, 11.2 Mбит/с, 1920х804
Аудио #01: AC3, 6 ch, 384 Кбит/с | RUS
Аудио #02: AC3, 6 ch, 640 Кбит/с | LATIN
Субтитры: Английские, итальянские

Complete name : Pervyiy.korol.Rima.2019.BDRip.1080p.ELEKTRI4KA.UNIONGANG.mkv
Format : Matroska
Format version : Version 4
File size : 10.8 GiB
Duration : 2 h 7 min
Overall bit rate : 12.2 Mb/s
Movie name : Pervyiy.korol.Rima.2019.BDRip.1080p.ELEKTRI4KA.UNIONGANG.
Encoded date : UTC 2021-04-21 22:54:34
Writing application : mkvmerge v8.3.0 ('Over the Horizon') 64bit
Writing library : libebml v1.3.1 + libmatroska v1.4.2

Video
ID : 1
Format : AVC
Format/Info : Advanced Video Codec
Format profile : [email protected]
Format settings : CABAC / 4 Ref Frames
Format settings, CABAC : Yes
Format settings, Reference frames : 4 frames
Codec ID : V_MPEG4/ISO/AVC
Duration : 2 h 7 min
Bit rate : 11.2 Mb/s
Width : 1 920 pixels
Height : 804 pixels
Display aspect ratio : 2.40:1
Frame rate mode : Constant
Frame rate : 24.000 FPS
Color space : YUV
Chroma subsampling : 4:2:0
Bit depth : 8 bits
Scan type : Progressive
Bits/(Pixel*Frame) : 0.301
Stream size : 9.93 GiB (92%)
Writing library : x264 core 157 r2867+150 7e91e0e t_mod_Custom_2 [[email protected] X86_64]
Encoding settings : cabac=1 / ref=4 / deblock=1:-3:-3 / analyse=0x3:0x133 / me=umh / subme=11 / psy=1 / fade_compensate=0.00 / psy_rd=0.90:0.10 / mixed_ref=1 / me_range=64 / chroma_me=1 / trellis=2 / 8x8dct=1 / cqm=0 / deadzone=21,11 / fast_pskip=0 / chroma_qp_offset=-4 / threads=25 / lookahead_threads=4 / sliced_threads=0 / nr=0 / decimate=1 / interlaced=0 / bluray_compat=0 / constrained_intra=0 / fgo=0 / bframes=8 / b_pyramid=2 / b_adapt=2 / b_bias=0 / direct=3 / weightb=1 / open_gop=0 / weightp=2 / keyint=250 / keyint_min=24 / scenecut=40 / intra_refresh=0 / rc_lookahead=60 / rc=crf / mbtree=0 / crf=18.0000 / qcomp=0.70 / qpmin=0:0:0 / qpmax=69:69:69 / qpstep=4 / vbv_maxrate=35000 / vbv_bufsize=35000 / crf_max=0.0 / nal_hrd=none / filler=0 / ip_ratio=1.40 / pb_ratio=1.30 / aq=3:1.00 / aq-sensitivity=10.00 / aq-factor=1.00:1.00:1.00 / aq2=0 / aq3=0
Language : English
Default : Yes
Forced : No

Audio #1
ID : 2
Format : AC-3
Format/Info : Audio Coding 3
Commercial name : Dolby Digital
Codec ID : A_AC3
Duration : 2 h 7 min
Bit rate mode : Constant
Bit rate : 384 kb/s
Channel(s) : 6 channels
Channel layout : L R C LFE Ls Rs
Sampling rate : 48.0 kHz
Frame rate : 31.250 FPS (1536 SPF)
Compression mode : Lossy
Stream size : 350 MiB (3%)
Title : MVO (IVI)
Language : Russian
Service kind : Complete Main
Default : Yes
Forced : Yes

Audio #2
ID : 3
Format : AC-3
Format/Info : Audio Coding 3
Commercial name : Dolby Digital
Codec ID : A_AC3
Duration : 2 h 7 min
Bit rate mode : Constant
Bit rate : 640 kb/s
Channel(s) : 6 channels
Channel layout : L R C LFE Ls Rs
Sampling rate : 48.0 kHz
Frame rate : 31.250 FPS (1536 SPF)
Compression mode : Lossy
Stream size : 583 MiB (5%)
Title : Original
Language : Latin
Service kind : Complete Main
Default : No
Forced : No

Text #1
ID : 4
Format : UTF-8
Codec ID : S_TEXT/UTF8
Codec ID/Info : UTF-8 Plain Text
Duration : 2 h 0 min
Bit rate : 15 b/s
Count of elements : 553
Stream size : 13.3 KiB (0%)
Language : English
Default : No
Forced : No

Text #2
ID : 5
Format : UTF-8
Codec ID : S_TEXT/UTF8
Codec ID/Info : UTF-8 Plain Text
Duration : 1 h 58 min
Bit rate : 14 b/s
Count of elements : 550
Stream size : 12.9 KiB (0%)
Language : Italian
Default : No
Forced : No

Menu
00:00:00.000 : en:з»—?01 з»”?
00:10:28.042 : en:з»—?02 з»”?
00:21:03.208 : en:з»—?03 з»”?
00:34:29.292 : en:з»—?04 з»”?
00:41:19.792 : en:з»—?05 з»”?
00:57:48.042 : en:з»—?06 з»”?
01:07:24.958 : en:з»—?07 з»”?
01:16:28.750 : en:з»—?08 з»”?
01:26:40.792 : en:з»—?09 з»”?
01:37:13.458 : en:з»—?10 з»”?
01:45:37.958 : en:з»—?11 з»”?
02:00:27.292 : en:з»—?12 з»”?


Релиз от: &

Download
Для скачивания .torrent файлов необходима регистрация
Сайт не распространяет и не хранит электронные версии произведений, а лишь предоставляет доступ к создаваемому пользователями каталогу ссылок на торрент-файлы, которые содержат только списки хеш-сумм

Страница 1 из 1

Ответить на тему

   Похожие торренты   Торрент 




tracker_crontracker_cron