Регистрация ·  Логин: Пароль: Запомнить   · Забыли пароль?




Ответить на тему
Статистика раздачи
Размер: 12.01 ГБ | Зарегистрирован: 31 май 2021, 15:55 | .torrent скачан: 0 раз(а), DHT: [ 0 ] раз(а)
Сидеров: [ 0  | 0 байт/сек ]   Личеров: [ 0  | 0 байт/сек ]   DHT: [ 0 / 0 ]
Автор Сообщение

Модератор

С нами: 2 года 3 месяца
Сообщения: 3202
Россия

Сообщение 31 май 2021, 15:55 

[Цитировать]

Информация о фильме
Название: Спонтанность
Оригинальное название: Spontaneous
Год выхода: 2020
Жанр: Фантастика, мелодрама, комедия
Режиссер: Брайан Даффилд
В ролях: Кэтрин Лэнгфорд, Чарли Пламмер, Ивонн Орджи, Хэйли Лоу, Пайпер Перабо, Роб Хюбель, Крис Шилдс, Сара Уилли, Лэйн МакНил, Клайв Холлоуэй

О фильме: Ученики выпускного класса старшей школы Ковингтон буквально начали взрываться. Сначала на уроке взорвалась всеобщая любимица Кейтлин, потом член футбольной команды Перри, затем тихоня Крэнберри. В этой нестабильной ситуации Мара получает признание от одноклассника Дилана, и теперь, не имея ни малейшего понятия, сколько им ещё осталось, молодые люди стараются жить сегодняшним днём.



Выпущено: США / Awesomeness Films, Jurassic Party Productions
Продолжительность: 01:41:42
Озвучивание: Дублированное | iTunes

Файл
Формат: MKV
Качество: BDRip 1080p
Видео: MPEG-4 AVC, 14.4 Mb/s, 1920x800
Аудио #1: Russian: 48 kHz, AC3 Dolby Digital, 3/2 (L, C, R, l, r) + LFE ch, ~384 Kbps | DUB | iTunes
Аудио #2: English: 48 kHz, DTS-HD Master Audio, 3/2 (L, C, R, l, r) + LFE ch, ~2654 Kbps | Original
Субтитры: Russian (Forced, Full), English (SDH)
Дополнительно: Нет

Релиз группы: & @ NuRKHoNoFF

Complete name: Spontaneous.2020.BluRay.1080p.x264.ELEKTRI4KA.UNIONGANG.mkv
Format: Matroska
Format version: Version 4
File size: 12.0 GiB
Duration: 1 h 41 min
Overall bit rate mode: Variable
Overall bit rate: 16.9 Mb/s
Movie name: .ELEKTRI4KA.UNIONGANG
Encoded date: UTC 2021-04-18 08:13:12
Writing application: mkvmerge v45.0.0 ('Heaven in Pennies') 64-bit
Writing library: libebml v1.3.10 + libmatroska v1.5.2

Video
ID: 1
Format: AVC
Format/Info: Advanced Video Codec
Format profile: [email protected]
Format settings: 2 Ref Frames
Format settings, CABAC: No
Format settings, Reference: 2 frames
Format settings, GOP: M=3, N=24
Codec ID: V_MPEG4/ISO/AVC
Duration: 1 h 41 min
Bit rate: 14.4 Mb/s
Width: 1 920 pixels
Height: 800 pixels
Display aspect ratio: 2.40:1
Frame rate mode: Constant
Frame rate: 23.976 (24000/1001) FPS
Color space: YUV
Chroma subsampling: 4:2:0
Bit depth: 8 bits
Scan type: Progressive
Bits/(Pixel*Frame): 0.392
Stream size: 9.84 GiB (82%)
Title: ELEKTRI4KA.UNIONGANG
Writing library: x264 core 148
Encoding settings: cabac=0 / ref=1 / deblock=1:-1:-1 / analyse=0:0 / me=dia / subme=5 / psy=0 / mixed_ref=0 / me_range=16 / chroma_me=1 / trellis=0 / 8x8dct=1 / cqm=0 / deadzone=21, 11 / fast_pskip=0 / chroma_qp_offset=0 / threads=16 / lookahead_threads=4 / sliced_threads=0 / nr=0 / decimate=1 / interlaced=0 / bluray_compat=0 / constrained_intra=0 / bframes=2 / b_pyramid=0 / b_adapt=0 / b_bias=0 / direct=1 / weightb=0 / open_gop=0 / weightp=0 / keyint=24 / keyint_min=13 / scenecut=0 / intra_refresh=0 / rc_lookahead=0 / rc=cbr / mbtree=0 / bitrate=14437 / ratetol=1.0 / qcomp=0.60 / qpmin=0 / qpmax=69 / qpstep=4 / vbv_maxrate=14437 / vbv_bufsize=14437 / nal_hrd=none / filler=0 / ip_ratio=1.40 / pb_ratio=1.30 / aq=0
Language: Russian
Default: Yes
Forced: No
Color range: Limited
Color primaries: BT.709
Transfer characteristics: BT.709
Matrix coefficients: BT.709

Audio #1
ID: 2
Format: AC-3
Format/Info: Audio Coding 3
Commercial name: Dolby Digital
Codec ID: A_AC3
Duration: 1 h 41 min
Bit rate mode: Constant
Bit rate: 384 kb/s
Channel(s): 6 channels
Channel layout: L R C LFE Ls Rs
Sampling rate: 48.0 kHz
Frame rate: 31.250 FPS (1536 SPF)
Compression mode: Lossy
Stream size: 279 MiB (2%)
Title: iTunes ELEKTRI4KA.UNIONGANG
Language: Russian
Service kind: Complete Main
Default: Yes
Forced: Yes

Audio #2
ID: 3
Format: DTS XLL
Format/Info: Digital Theater Systems
Commercial name: DTS-HD Master Audio
Codec ID: A_DTS
Duration: 1 h 41 min
Bit rate mode: Variable
Bit rate: 2 654 kb/s
Channel(s): 6 channels
Channel layout: C L R Ls Rs LFE
Sampling rate: 48.0 kHz
Frame rate: 93.750 FPS (512 SPF)
Bit depth: 16 bits
Compression mode: Lossless
Stream size: 1.89 GiB (16%)
Title: ELEKTRI4KA.UNIONGANG
Language: English
Default: No
Forced: No

Text #1
ID: 4
Format: UTF-8
Codec ID: S_TEXT/UTF8
Codec ID/Info: UTF-8 Plain Text
Duration: 1 h 31 min
Bit rate: 1 b/s
Count of elements: 25
Stream size: 1.24 KiB (0%)
Title: Forced
Language: Russian
Default: No
Forced: No

Text #2
ID: 5
Format: UTF-8
Codec ID: S_TEXT/UTF8
Codec ID/Info: UTF-8 Plain Text
Duration: 1 h 41 min
Bit rate: 83 b/s
Count of elements: 1172
Stream size: 62.3 KiB (0%)
Title: Full
Language: Russian
Default: No
Forced: No

Text #3
ID: 6
Format: UTF-8
Codec ID: S_TEXT/UTF8
Codec ID/Info: UTF-8 Plain Text
Duration: 1 h 35 min
Bit rate: 51 b/s
Count of elements: 1146
Stream size: 35.9 KiB (0%)
Language: English
Default: No
Forced: No

Text #4
ID: 7
Format: UTF-8
Codec ID: S_TEXT/UTF8
Codec ID/Info: UTF-8 Plain Text
Duration: 1 h 35 min
Bit rate: 56 b/s
Count of elements: 1297
Stream size: 39.4 KiB (0%)
Title: SDH
Language: English
Default: No
Forced: No

Text #5
ID: 8
Format: PGS
Muxing mode: zlib
Codec ID: S_HDMV/PGS
Codec ID/Info: Picture based subtitle format used on BDs/HD-DVDs
Duration: 1 h 35 min
Bit rate: 18.0 kb/s
Count of elements: 2594
Stream size: 12.3 MiB (0%)
Language: English
Default: No
Forced: No

Download
Для скачивания .torrent файлов необходима регистрация
Сайт не распространяет и не хранит электронные версии произведений, а лишь предоставляет доступ к создаваемому пользователями каталогу ссылок на торрент-файлы, которые содержат только списки хеш-сумм

Страница 1 из 1

Ответить на тему

   Похожие торренты   Торрент 




tracker_crontracker_cron