Регистрация ·  Логин: Пароль: Запомнить   · Забыли пароль?




Ответить на тему
Статистика раздачи
Размер: 3.35 ГБ | Зарегистрирован: 31 май 2021, 15:55 | .torrent скачан: 0 раз(а), DHT: [ 112 ] раз(а)
Сидеров: [ 77  | 0 байт/сек ]   Личеров: [ 3  | 0 байт/сек ]   DHT: [ 77 / 3 ]
Автор Сообщение

Модератор

С нами: 2 года 3 месяца
Сообщения: 3142
Россия

Сообщение 31 май 2021, 15:55 

[Цитировать]

Информация о фильме
Название: Хребет дьявола
Оригинальное название: Shookum Hills / The Devil Below
Год выхода: 2021
Жанр: Ужасы
Режиссер: Брэдли Паркер
В ролях: Алисия Санс, Адан Канто, Уилл Пэттон, Зак Эйвери, Чиназа Уче, Джонатан Садовский, Джесси ЛаТуретт, Марк МакКалло, Альфа Триветт, Том Проктер

О фильме: Группа молодых геологов нанимает отчаянную девушку-проводника, чтобы она доставила их в загадочный шахтёрский городок, в котором много лет назад произошёл пожар и который теперь не обозначен на картах. Заплутав, компания спрашивает дорогу у местных, но те советуют убираться подобру-поздорову и даже начинают преследовать незваных гостей. Несмотря на это, геологи все же находят скрытую в лесу дорогу и заброшенный городок, окруженный забором под напряжением, а внутри периметра — странные дыры в земле.



Выпущено: США / 1inMM Productions
Продолжительность: 01:28:57
Озвучивание: Дублированное | iTunes

Файл
Формат: MKV
Качество: WEB-DL 1080p
Видео: MPEG-4 AVC, 4619 Kb/s, 1908x1026
Аудио #1: Russian: 48 kHz, AC3 Dolby Digital, 3/2 (L, C, R, l, r) + LFE ch, ~384 Kbps | DUB | iTunes
Аудио #2: English: 48 kHz, AC3 Dolby Digital, 3/2 (L, C, R, l, r) + LFE ch, ~384 Kbps | Original
Субтитры: English
Дополнительно: Сохранены оригинальные чаптеры.

Релиз группы: &

Complete name: Hrebet.dyavola.2021.1080p.WEB-DL.ELEKTRI4KA.UNIONGANG.mkv
Format: Matroska
Format version: Version 4
File size: 3.35 GiB
Duration: 1 h 28 min
Overall bit rate: 5 389 kb/s
Movie name: Hrebet.dyavola.2021.1080p.WEB-DL.ELEKTRI4KA.UNIONGANG.
Encoded date: UTC 2021-04-16 20:21:57
Writing application: mkvmerge v8.3.0 ('Over the Horizon') 64bit
Writing library: libebml v1.3.1 + libmatroska v1.4.2

Video
ID: 1
Format: AVC
Format/Info: Advanced Video Codec
Format profile: [email protected]
Format settings: CABAC / 4 Ref Frames
Format settings, CABAC: Yes
Format settings, Reference frames: 4 frames
Codec ID: V_MPEG4/ISO/AVC
Duration: 1 h 28 min
Bit rate: 4 619 kb/s
Width: 1 908 pixels
Height: 1 026 pixels
Display aspect ratio: 1.85:1
Frame rate mode: Constant
Frame rate: 23.976 FPS
Color space: YUV
Chroma subsampling: 4:2:0
Bit depth: 8 bits
Scan type: Progressive
Bits/(Pixel*Frame): 0.098
Stream size: 2.87 GiB (86%)
Language: English
Default: Yes
Forced: No
Color range: Limited
Color primaries: BT.709
Transfer characteristics: BT.709
Matrix coefficients: BT.709

Audio #1
ID: 2
Format: AC-3
Format/Info: Audio Coding 3
Commercial name: Dolby Digital
Codec ID: A_AC3
Duration: 1 h 28 min
Bit rate mode: Constant
Bit rate: 384 kb/s
Channel(s): 6 channels
Channel layout: L R C LFE Ls Rs
Sampling rate: 48.0 kHz
Frame rate: 31.250 FPS (1536 SPF)
Compression mode: Lossy
Delay relative to video: -42 ms
Stream size: 244 MiB (7%)
Title: DUB (iTunes)
Language: Russian
Service kind: Complete Main
Default: Yes
Forced: Yes

Audio #2
ID: 3
Format: AC-3
Format/Info: Audio Coding 3
Commercial name: Dolby Digital
Codec ID: A_AC3
Duration: 1 h 28 min
Bit rate mode: Constant
Bit rate: 384 kb/s
Channel(s): 6 channels
Channel layout: L R C LFE Ls Rs
Sampling rate: 48.0 kHz
Frame rate: 31.250 FPS (1536 SPF)
Compression mode: Lossy
Delay relative to video: -42 ms
Stream size: 244 MiB (7%)
Title: Original
Language: English
Service kind: Complete Main
Default: No
Forced: No

Text
ID: 4
Format: UTF-8
Codec ID: S_TEXT/UTF8
Codec ID/Info: UTF-8 Plain Text
Duration: 1 h 19 min
Bit rate: 37 b/s
Count of elements: 825
Stream size: 21.8 KiB (0%)
Language: English
Default: Yes
Forced: No

Menu
00:00:00.000: en:1
00:11:04.000: en:2
00:23:40.000: en:3
00:34:15.000: en:4
00:47:35.000: en:5
00:57:18.000: en:6
01:09:15.000: en:7
01:22:13.000: en:8

Download
Для скачивания .torrent файлов необходима регистрация
Сайт не распространяет и не хранит электронные версии произведений, а лишь предоставляет доступ к создаваемому пользователями каталогу ссылок на торрент-файлы, которые содержат только списки хеш-сумм

Страница 1 из 1

Ответить на тему

   Похожие торренты   Торрент 




tracker_crontracker_cron