Регистрация ·  Логин: Пароль: Запомнить   · Забыли пароль?




Ответить на тему
Статистика раздачи
Размер: 3.41 ГБ | Зарегистрирован: 31 май 2021, 15:55 | .torrent скачан: 0 раз(а), DHT: [ 0 ] раз(а)
Сидеров: [ 0  | 0 байт/сек ]   Личеров: [ 0  | 0 байт/сек ]   DHT: [ 0 / 0 ]
Автор Сообщение

Модератор

С нами: 2 года 3 месяца
Сообщения: 3142
Россия

Сообщение 31 май 2021, 15:55 

[Цитировать]


«Будь осторожен с желаниями»

Информация о фильме
Название: Сэм: Песочный эльф
Оригинальное название: Four Kids and It
Год выхода: 2020
Жанр: Фэнтези, семейный

Режиссер: Энди де Эммони
В ролях: Билли Дженкинс, Элли-Мэй Сиаме, Эшли Ауфдерхайд, Тедди-Роуз Маллсон-Аллен, Пола Пэттон, Расселл Брэнд, Майкл Кейн, Пиппа Хэйвуд, Мэттью Гуд, Кэролайн Шин

О фильме: Волшебный эльф Сэм обладает магической силой — исполняет любые желания. Четверо детей знакомятся с ним и получают все, о чем мечтали: розовый вертолёт, способность взбираться на любые скалы, летать и даже стать поп-звездой и кумиром миллионов. Но эльфа ждёт опасность. Но у коллекционера Тристана другие планы, с помощью Сэма можно получить золото и власть.



Страна: Великобритания
Студия: Dan Films, Deadpan Pictures, Kindle Entertainment
Продолжительность: 01:39:32
Перевод: Дублированный | iTunes

Файл
Качество: WEB-DL 1080p
Формат: MKV
Видео: MPEG-4 AVC, 4524 Kb/s, 1920x802
Аудио: AC3, 48 kHz, 6 ch, ~384.00 kbps avg | русский | iTunes
Субтитры: Нет
Дополнительно: Сохранены оригинальные чаптеры.

Релиз группы: &

Complete name : Sem.Pesochnyiy.elf.2020.WEB-DL.1080p.ELEKTRI4KA.UNIONGANG.mkv
Format : Matroska
Format version : Version 4
File size : 3.41 GiB
Duration : 1 h 39 min
Overall bit rate : 4 910 kb/s
Movie name : Sem.Pesochnyiy.elf.2020.WEB-DL.1080p.ELEKTRI4KA.UNIONGANG.
Encoded date : UTC 2021-04-13 19:53:38
Writing application : mkvmerge v8.3.0 ('Over the Horizon') 64bit
Writing library : libebml v1.3.1 + libmatroska v1.4.2

Video
ID : 1
Format : AVC
Format/Info : Advanced Video Codec
Format profile : [email protected]
Format settings : CABAC / 5 Ref Frames
Format settings, CABAC : Yes
Format settings, Reference frames : 5 frames
Codec ID : V_MPEG4/ISO/AVC
Duration : 1 h 39 min
Bit rate : 4 524 kb/s
Width : 1 920 pixels
Height : 802 pixels
Display aspect ratio : 2.40:1
Frame rate mode : Constant
Frame rate : 24.000 FPS
Color space : YUV
Chroma subsampling : 4:2:0
Bit depth : 8 bits
Scan type : Progressive
Bits/(Pixel*Frame) : 0.122
Stream size : 3.15 GiB (92%)
Language : English
Default : Yes
Forced : No
Color range : Limited
Color primaries : BT.709
Transfer characteristics : BT.709
Matrix coefficients : BT.709

Audio
ID : 2
Format : AC-3
Format/Info : Audio Coding 3
Commercial name : Dolby Digital
Codec ID : A_AC3
Duration : 1 h 39 min
Bit rate mode : Constant
Bit rate : 384 kb/s
Channel(s) : 6 channels
Channel layout : L R C LFE Ls Rs
Sampling rate : 48.0 kHz
Frame rate : 31.250 FPS (1536 SPF)
Compression mode : Lossy
Stream size : 273 MiB (8%)
Title : DUB (iTunes)
Language : Russian
Service kind : Complete Main
Default : Yes
Forced : No

Menu
00:00:00.000 : en:Глава 1
00:08:52.916 : en:Глава 2
00:17:29.916 : en:Глава 3
00:25:57.249 : en:Глава 4
00:34:00.874 : en:Глава 5
00:42:23.332 : en:Глава 6
00:50:46.123 : en:Глава 7
00:59:00.206 : en:Глава 8
01:07:12.664 : en:Глава 9
01:15:41.205 : en:Глава 10
01:23:58.788 : en:Глава 11
01:32:11.579 : en:Глава 12

Download
Для скачивания .torrent файлов необходима регистрация
Сайт не распространяет и не хранит электронные версии произведений, а лишь предоставляет доступ к создаваемому пользователями каталогу ссылок на торрент-файлы, которые содержат только списки хеш-сумм

Страница 1 из 1

Ответить на тему

   Похожие торренты   Торрент 




tracker_crontracker_cron