Регистрация ·  Логин: Пароль: Запомнить   · Забыли пароль?




Ответить на тему
Статистика раздачи
Размер: 3.81 ГБ | Зарегистрирован: 31 май 2021, 15:54 | .torrent скачан: 0 раз(а), DHT: [ 0 ] раз(а)
Сидеров: [ 0  | 0 байт/сек ]   Личеров: [ 0  | 0 байт/сек ]   DHT: [ 0 / 0 ]
Автор Сообщение

Модератор

С нами: 2 года 3 месяца
Сообщения: 3202
Россия

Сообщение 31 май 2021, 15:54 

[Цитировать]

Информация о фильме
Название: Моя собака — герой / Овчарка. История еврейской собаки
Оригинальное название: Shepherd: The Story of a Jewish Dog
Год выхода: 2019
Жанр: Семейный, драма, экранизация
Режиссер: Линн Рот
В ролях: Айелет Зурер, Кен Дукен, Аугуст Матуро, Луис Роббинс, Ребека Ри, Питер Шюллер, Петер Линка, Левенте Молнар, Виктор Денеш, Ханс Петерсон, Виктория Стефановски, Бернадетт Джоббаги, Жаклин Моэллендорф

О фильме: Немецкую овчарку по имени Калеб забирают из еврейской семьи, когда в Германии к власти приходят нацисты. Калеба берёт офицер СС, который его тренирует, чтобы тот ловил евреев, пытающихся сбежать из концентрационного лагеря. О Калебе хорошо заботятся, он легко справляется со своими обязанностями, но однажды он узнаёт знакомый запах. Его бывший хозяин, мальчик по имени Джошуа, оказывается в лагере. Калеб не забыл о своей верности к Джошуа, чья жизнь теперь в опасности. Вместе они сбегают из лагеря и после нескольких месяцев, проведённых на грани жизни и смерти, их находят партизаны, которые помогают им добраться до Израиля. По роману Ашера Кравица "Еврейская собака" (Израиль).



Выпущено: США / FocusFox Studio, JDOG Films
Продолжительность: 01:33:52
Озвучивание: Дублированное | IVI

Файл
Формат: MKV
Качество: WEB-DL 1080p
Видео: MPEG-4 AVC, 5239 Kb/s, 1916x1036
Аудио #1: Russian: 48 kHz, AC3 Dolby Digital, 3/2 (L, C, R, l, r) + LFE ch, ~384 Kbps | DUB | IVI
Аудио #2: English: 48 kHz, AC3 Dolby Digital, 2/0 (L, R) ch, ~192 Kbps | Original
Субтитры: Нет
Дополнительно: Сохранены оригинальные чаптеры.

Релиз группы: &

Complete name: Moya.sobaka.geroy.2020.1080p.WEB-DL.ELEKTRI4KA.UNIONGANG.mkv
Format: Matroska
Format version: Version 4
File size: 3.81 GiB
Duration: 1 h 33 min
Overall bit rate: 5 816 kb/s
Movie name: Moya.sobaka.geroy.2020.1080p.WEB-DL.ELEKTRI4KA.UNIONGANG.
Encoded date: UTC 2021-04-13 12:00:46
Writing application: mkvmerge v8.3.0 ('Over the Horizon') 64bit
Writing library: libebml v1.3.1 + libmatroska v1.4.2

Video
ID: 1
Format: AVC
Format/Info: Advanced Video Codec
Format profile: [email protected]
Format settings: CABAC / 4 Ref Frames
Format settings, CABAC: Yes
Format settings, Reference frames: 4 frames
Codec ID: V_MPEG4/ISO/AVC
Duration: 1 h 33 min
Bit rate: 5 239 kb/s
Width: 1 916 pixels
Height: 1 036 pixels
Display aspect ratio: 1.85:1
Frame rate mode: Constant
Frame rate: 24.000 FPS
Color space: YUV
Chroma subsampling: 4:2:0
Bit depth: 8 bits
Scan type: Progressive
Bits/(Pixel*Frame): 0.110
Stream size: 3.43 GiB (90%)
Language: English
Default: Yes
Forced: No
Color range: Limited
Color primaries: BT.709
Transfer characteristics: BT.709
Matrix coefficients: BT.709

Audio #1
ID: 2
Format: AC-3
Format/Info: Audio Coding 3
Commercial name: Dolby Digital
Codec ID: A_AC3
Duration: 1 h 33 min
Bit rate mode: Constant
Bit rate: 384 kb/s
Channel(s): 6 channels
Channel layout: L R C LFE Ls Rs
Sampling rate: 48.0 kHz
Frame rate: 31.250 FPS (1536 SPF)
Compression mode: Lossy
Stream size: 258 MiB (7%)
Language: Russian
Service kind: Complete Main
Default: Yes
Forced: Yes

Audio #2
ID: 3
Format: AC-3
Format/Info: Audio Coding 3
Commercial name: Dolby Digital
Codec ID: A_AC3
Duration: 1 h 33 min
Bit rate mode: Constant
Bit rate: 192 kb/s
Channel(s): 2 channels
Channel layout: L R
Sampling rate: 48.0 kHz
Frame rate: 31.250 FPS (1536 SPF)
Compression mode: Lossy
Stream size: 129 MiB (3%)
Service kind: Complete Main
Default: No
Forced: No

Menu
00:00:00.000: en:Chapter 1
00:23:37.666: en:Chapter 2
00:44:59.873: en:Chapter 3
01:03:23.331: en:Chapter 4
01:28:48.996: en:Chapter 5

Download
Для скачивания .torrent файлов необходима регистрация
Сайт не распространяет и не хранит электронные версии произведений, а лишь предоставляет доступ к создаваемому пользователями каталогу ссылок на торрент-файлы, которые содержат только списки хеш-сумм

Страница 1 из 1

Ответить на тему

   Похожие торренты   Торрент 




tracker_crontracker_cron