Регистрация ·  Логин: Пароль: Запомнить   · Забыли пароль?




Ответить на тему
Статистика раздачи
Размер: 461.46 МБ | Зарегистрирован: 23 май 2021, 21:52 | .torrent скачан: 0 раз(а), DHT: [ 4856 ] раз(а)
Сидеров: [ 590  | 0 байт/сек ]   Личеров: [ 49  | 0 байт/сек ]   DHT: [ 590 / 49 ]
Автор Сообщение

Модератор
Аватара пользователя

С нами: 7 лет 2 месяца
Сообщения: 10689
Откуда: Гуанчжоу
Китай

Сообщение 23 май 2021, 21:52 

[Цитировать]


Информация о фильме
Название: 22 против Земли
Оригинальное название: 22 vs. Earth
Год выхода: 2021
Жанр: мультфильм, короткометражка, фэнтези, комедия, приключения, семейный
Режиссер: Кевин Нолтинг
В ролях: Тина Фей, Ричард Айоад, Алиса Брага, Айанна Миорин, Мика Чен, Азриэль Далман, Адела Драбек, Кари Дюшарм

О фильме:
Перед событиями фильма «Душа» 22 отказывается отправиться на Землю и создает банду с 5 новыми душами, пытаясь поднять восстание. Однако деятельность его окружения дает неожиданные результаты, и подрывной план может привести к удивительному раскрытию смысла жизни.



Страна: США
Продолжительность: 00:05:37
Перевод: Дублированный (любительский) | Flarrow Films

Роли дублировали: Нана Саркисян, Алена Козлова, Олешка Печенько, Лена Лунина, Рута Новикова, Рина Чернышова

Файл
Формат: MKV
Кодек: MPEG-4 AVC
Качество: WEB-DLRip 1080p (локализованный видеоряд)
Видео: 1920х1080, ~9 620 kb/s, 23.976, 8 bits
Аудио#1: Russian: E-AC-3, 768 kb/s, 8 channels, 48.0 kHz
Аудио#2: Russian: AC-3, 320 kb/s, 2 channels, 48.0 kHz
Аудио#3: English: E-AC-3, 768 kb/s, 6 channels, 48.0 kHz
Субтитры: русские (отключаемые)
Сэмпл: скачать

General
Unique ID : 82791986598918257208610484450144349973 (0x3E492817E53F432B8128C7A1BDA0EF15)
Complete name : C:Flarrow22.vs.Earth.2021.1080p.D.Flarrow.Films.mkv
Format : Matroska
Format version : Version 4
File size : 461 MiB
Duration : 5 min 37 s
Overall bit rate : 11.5 Mb/s
Encoded date : UTC 2021-05-22 19:38:06
Writing application : mkvmerge v32.0.0 ('Astral Progressions') 64-bit
Writing library : libebml v1.3.7 + libmatroska v1.5.0

Video
ID : 1
Format : AVC
Format/Info : Advanced Video Codec
Format profile : [email protected]
Format settings : CABAC / 4 Ref Frames
Format settings, CABAC : Yes
Format settings, Reference : 4 frames
Codec ID : V_MPEG4/ISO/AVC
Duration : 5 min 37 s
Bit rate : 9 620 kb/s
Width : 1 920 pixels
Height : 1 080 pixels
Display aspect ratio : 16:9
Frame rate mode : Constant
Frame rate : 23.976 (24000/1001) FPS
Color space : YUV
Chroma subsampling : 4:2:0
Bit depth : 8 bits
Scan type : Progressive
Bits/(Pixel*Frame) : 0.193
Stream size : 387 MiB (84%)
Language : Russian
Default : Yes
Forced : No
Color range : Limited
Color primaries : BT.709
Transfer characteristics : BT.709
Matrix coefficients : BT.709

Audio #1
ID : 2
Format : E-AC-3
Format/Info : Enhanced AC-3
Commercial name : Dolby Digital Plus
Format profile : Blu-ray Disc
Codec ID : A_EAC3
Duration : 5 min 37 s
Bit rate mode : Constant
Bit rate : 768 kb/s
Channel(s) : 8 channels
Channel layout : L R C LFE Ls Rs Lb Rb
Sampling rate : 48.0 kHz
Frame rate : 31.250 FPS (1536 SPF)
Compression mode : Lossy
Stream size : 30.9 MiB (7%)
Language : Russian
Service kind : Complete Main
Default : Yes
Forced : No

Audio #2
ID : 3
Format : AC-3
Format/Info : Audio Coding 3
Commercial name : Dolby Digital
Codec ID : A_AC3
Duration : 5 min 37 s
Bit rate mode : Constant
Bit rate : 320 kb/s
Channel(s) : 2 channels
Channel layout : L R
Sampling rate : 48.0 kHz
Frame rate : 31.250 FPS (1536 SPF)
Compression mode : Lossy
Stream size : 12.9 MiB (3%)
Language : Russian
Service kind : Complete Main
Default : No
Forced : No

Audio #3
ID : 4
Format : E-AC-3 JOC
Format/Info : Enhanced AC-3 with Joint Object Coding
Commercial name : Dolby Digital Plus with Dolby Atmos
Codec ID : A_EAC3
Duration : 5 min 37 s
Bit rate mode : Constant
Bit rate : 768 kb/s
Channel(s) : 6 channels
Channel layout : L R C LFE Ls Rs
Sampling rate : 48.0 kHz
Frame rate : 31.250 FPS (1536 SPF)
Compression mode : Lossy
Stream size : 30.9 MiB (7%)
Title : English
Language : English
Service kind : Complete Main
Default : No
Forced : No
Complexity index : 16
Number of dynamic objects : 15
Bed channel count : 1 channel
Bed channel configuration : LFE

Text
ID : 5
Format : UTF-8
Codec ID : S_TEXT/UTF8
Codec ID/Info : UTF-8 Plain Text
Duration : 5 min 26 s
Bit rate : 152 b/s
Count of elements : 112
Stream size : 6.06 KiB (0%)
Language : Russian
Default : Yes
Forced : No














Релиз от: Flarrow Films
Примечание: Без интро Flarrow Films

Download
Для скачивания .torrent файлов необходима регистрация
Сайт не распространяет и не хранит электронные версии произведений, а лишь предоставляет доступ к создаваемому пользователями каталогу ссылок на торрент-файлы, которые содержат только списки хеш-сумм

Страница 1 из 1

Ответить на тему

   Похожие торренты   Торрент 




tracker_crontracker_cron