Регистрация ·  Логин: Пароль: Запомнить   · Забыли пароль?




Ответить на тему
Статистика раздачи
Размер: 15.67 ГБ | Зарегистрирован: 13 апр 2021, 21:16 | .torrent скачан: 0 раз(а), DHT: [ 1111 ] раз(а)
Сидеров: [ 384  | 0 байт/сек ]   Личеров: [ 58  | 0 байт/сек ]   DHT: [ 384 / 58 ]
Автор Сообщение

Модератор

С нами: 2 года 3 месяца
Сообщения: 3142
Россия

Сообщение 13 апр 2021, 21:16 

[Цитировать]


Информация о фильме
Название: Асоциальная сеть
Оригинальное название: Silk Road
Год выхода: 2021
Жанр: Триллер, драма, криминал
Режиссер: Тиллер Расселл
В ролях: Ник Робинсон, Дженнифер Юн, Джимми Симпсон, Джейсон Кларк, Пол Блотт, Даррел Бритт-Гибсон, Дэниэл Дэвид Стюарт, Кеннет Миллер, Александра Шипп, Кэтрин Аселтон

О фильме:
В мире супергероев он был бы Джокером. Настоящий суперзлодей, бросивший вызов системе. Он создал свой Амазон в мире даркнета, где преступники со всего мира сбывали оружие, поддельные документы и наркотики. Многомиллионное состояние, возможность по щелчку пальцев организовать любую хакерскую атаку и вооружить небольшую страну - кажется, он был неуязвим. Но как и всякий злодей он встретил своего антагониста.



Страна: США
Студия: High Frequency Entertainment, Mutressa Movies, Perfect Season Productions
Продолжительность: 01:56:44
Перевод: Дублированный, профессиональный (многоголосый, закадровый), авторский (одноголосый, закадровый)
Субтитры: Русские (Forced), Английские (Full, SDH)
В дорожке №3 присутствует ненормативная лексика.

Релиз от: NNMClub
Качество: BDRip 1080p (iFT)
Видео: AVC/H.264, 1920x804, (2.40:1), ~16.3 Mbps, 23.976 fps
Аудио 1: AC3, 6 ch, 384 Kbps - Русский (DUB, iTunes)
Аудио 2: AC3, 6 ch, 448 Kbps - Русский (MVO, HDRezka Studio)
Аудио 3: AC3, 6 ch, 384 Kbps - Русский (AVO, A. Карповский)
Аудио 4: DTS, 6 ch, 1509 Kbps - Английский (оригинал)
Аудио 5: AC3, 2 ch, 192 Kbps - Английский (Commentary with Director: Tiller Russell /Editor Greg O'Bryant)

General
Unique ID : 244288906290602338117246998396441053142 (0xB7C854FC07999E23E553A468F9E9C7D6)
Complete name : F:Silk.Road.2021.BDRip.1080p.NNMClub.mkv
Format : Matroska
Format version : Version 4
File size : 15.7 GiB
Duration : 1 h 56 min
Overall bit rate : 19.2 Mb/s
Movie name : Silk Road (2021) | NNMClub
Encoded date : UTC 2021-04-12 11:30:02
Writing application : mkvmerge v56.1.0 ('My Friend') 64-bit
Writing library : libebml v1.4.2 + libmatroska v1.6.4
Cover : Yes
Attachments : Cover.jpg

Video
ID : 1
Format : AVC
Format/Info : Advanced Video Codec
Format profile : [email protected]
Format settings : CABAC / 5 Ref Frames
Format settings, CABAC : Yes
Format settings, Reference : 5 frames
Codec ID : V_MPEG4/ISO/AVC
Duration : 1 h 56 min
Bit rate : 16.3 Mb/s
Width : 1 920 pixels
Height : 804 pixels
Display aspect ratio : 2.40:1
Frame rate mode : Constant
Frame rate : 23.976 (24000/1001) FPS
Color space : YUV
Chroma subsampling : 4:2:0
Bit depth : 8 bits
Scan type : Progressive
Bits/(Pixel*Frame) : 0.440
Stream size : 13.3 GiB (85%)
Title : Silk Road (2021)
Writing library : x264 core 161 r3048+58M ~ Encoded by Mocunaman in Portugal
Encoding settings : cabac=1 / ref=5 / deblock=1:-3:-3 / analyse=0x3:0x113 / me=umh / subme=11 / psy=1 / fade_compensate=0.00 / psy_rd=1.00:0.00 / mixed_ref=1 / me_range=32 / chroma_me=1 / trellis=2 / 8x8dct=1 / cqm=0 / deadzone=21,11 / fast_pskip=0 / chroma_qp_offset=-2 / threads=25 / lookahead_threads=6 / sliced_threads=0 / nr=0 / decimate=0 / interlaced=0 / bluray_compat=0 / constrained_intra=0 / fgo=0 / bframes=14 / b_pyramid=2 / b_adapt=2 / b_bias=0 / direct=3 / weightb=1 / open_gop=0 / weightp=2 / keyint=250 / keyint_min=23 / scenecut=40 / intra_refresh=0 / rc_lookahead=60 / rc=crf / mbtree=0 / crf=18.5000 / qcomp=0.60 / qpmin=0:0:0 / qpmax=69:69:69 / qpstep=4 / vbv_maxrate=62500 / vbv_bufsize=78125 / crf_max=0.0 / nal_hrd=none / filler=0 / ip_ratio=1.30 / pb_ratio=1.20 / aq=3:0.80 / aq-sensitivity=10.00 / aq-factor=1.00:1.00:1.00 / aq2=0 / aq3=0 / zones=0,1128,crf=16.5/4200,13128,crf=17.5/18624,21388,crf=17.5/26692,28924,crf=18/47332,49505,crf=18/50882,57938,crf=17.5/61634,63362,crf=18/83965,89593,crf=18/114812,119294,crf=17.5
Language : English
Default : Yes
Forced : No
Color range : Limited
Color primaries : BT.709
Transfer characteristics : BT.709
Matrix coefficients : BT.709

Audio #1
ID : 2
Format : AC-3
Format/Info : Audio Coding 3
Commercial name : Dolby Digital
Codec ID : A_AC3
Duration : 1 h 56 min
Bit rate mode : Constant
Bit rate : 384 kb/s
Channel(s) : 6 channels
Channel layout : L R C LFE Ls Rs
Sampling rate : 48.0 kHz
Frame rate : 31.250 FPS (1536 SPF)
Compression mode : Lossy
Delay relative to video : 8 ms
Stream size : 320 MiB (2%)
Title : DUB, iTunes
Language : Russian
Service kind : Complete Main
Default : Yes
Forced : No

Audio #2
ID : 3
Format : AC-3
Format/Info : Audio Coding 3
Commercial name : Dolby Digital
Codec ID : A_AC3
Duration : 1 h 56 min
Bit rate mode : Constant
Bit rate : 448 kb/s
Channel(s) : 6 channels
Channel layout : L R C LFE Ls Rs
Sampling rate : 48.0 kHz
Frame rate : 31.250 FPS (1536 SPF)
Compression mode : Lossy
Stream size : 374 MiB (2%)
Title : MVO, HDRezka Studio
Language : Russian
Service kind : Complete Main
Default : No
Forced : No

Audio #3
ID : 4
Format : AC-3
Format/Info : Audio Coding 3
Commercial name : Dolby Digital
Codec ID : A_AC3
Duration : 1 h 56 min
Bit rate mode : Constant
Bit rate : 384 kb/s
Channel(s) : 6 channels
Channel layout : L R C LFE Ls Rs
Sampling rate : 48.0 kHz
Frame rate : 31.250 FPS (1536 SPF)
Compression mode : Lossy
Stream size : 321 MiB (2%)
Title : AVO, Антон Карповский
Language : Russian
Service kind : Complete Main
Default : No
Forced : No

Audio #4
ID : 5
Format : DTS
Format/Info : Digital Theater Systems
Codec ID : A_DTS
Duration : 1 h 56 min
Bit rate mode : Constant
Bit rate : 1 509 kb/s
Channel(s) : 6 channels
Channel layout : C L R Ls Rs LFE
Sampling rate : 48.0 kHz
Frame rate : 93.750 FPS (512 SPF)
Bit depth : 24 bits
Compression mode : Lossy
Stream size : 1.23 GiB (8%)
Title : Original
Language : English
Default : No
Forced : No

Audio #5
ID : 6
Format : AC-3
Format/Info : Audio Coding 3
Commercial name : Dolby Digital
Codec ID : A_AC3
Duration : 1 h 56 min
Bit rate mode : Constant
Bit rate : 192 kb/s
Channel(s) : 2 channels
Channel layout : L R
Sampling rate : 48.0 kHz
Frame rate : 31.250 FPS (1536 SPF)
Compression mode : Lossy
Stream size : 160 MiB (1%)
Title : Commentary with Director: Tiller Russell /Editor Greg O'Bryant
Language : English
Service kind : Complete Main
Default : No
Forced : No

Text #1
ID : 7
Format : UTF-8
Codec ID : S_TEXT/UTF8
Codec ID/Info : UTF-8 Plain Text
Duration : 1 h 49 min
Bit rate : 10 b/s
Count of elements : 135
Stream size : 8.67 KiB (0%)
Title : Forced
Language : Russian
Default : Yes
Forced : No

Text #2
ID : 8
Format : UTF-8
Codec ID : S_TEXT/UTF8
Codec ID/Info : UTF-8 Plain Text
Duration : 1 h 47 min
Bit rate : 73 b/s
Count of elements : 1567
Stream size : 57.7 KiB (0%)
Title : Full
Language : English
Default : No
Forced : No

Text #3
ID : 9
Format : UTF-8
Codec ID : S_TEXT/UTF8
Codec ID/Info : UTF-8 Plain Text
Duration : 1 h 48 min
Bit rate : 79 b/s
Count of elements : 1729
Stream size : 63.2 KiB (0%)
Title : SDH
Language : English
Default : No
Forced : No

Menu
00:00:00.000 : Chapter 01
00:04:57.797 : Chapter 02
00:10:53.987 : Chapter 03
00:18:47.251 : Chapter 04
00:24:07.821 : Chapter 05
00:30:02.759 : Chapter 06
00:34:28.733 : Chapter 07
00:40:52.492 : Chapter 08
00:47:19.545 : Chapter 09
00:55:24.238 : Chapter 10
01:04:29.074 : Chapter 11
01:13:10.052 : Chapter 12
01:21:47.820 : Chapter 13
01:30:01.730 : Chapter 14
01:37:16.164 : Chapter 15
01:44:16.917 : Chapter 16
x264 [info]: frame I:1013 Avg QP:16.39 size:202292
x264 [info]: frame P:33441 Avg QP:17.00 size:117133
x264 [info]: frame B:133497 Avg QP:18.11 size: 75975
x264 [info]: consecutive B-frames: 2.4% 2.7% 5.2% 8.1% 10.3% 55.4% 4.5% 1.1% 1.7% 1.6% 1.3% 1.0% 1.4% 2.4% 0.8%

Download
Для скачивания .torrent файлов необходима регистрация
Сайт не распространяет и не хранит электронные версии произведений, а лишь предоставляет доступ к создаваемому пользователями каталогу ссылок на торрент-файлы, которые содержат только списки хеш-сумм

Страница 1 из 1

Ответить на тему

   Похожие торренты   Торрент