Регистрация ·  Логин: Пароль: Запомнить   · Забыли пароль?




Ответить на тему
Статистика раздачи
Размер: 1.46 ГБ | Зарегистрирован: 22 янв 2021, 04:24 | .torrent скачан: 0 раз(а), DHT: [ 9717 ] раз(а)
Сидеров: [ 245  | 0 байт/сек ]   Личеров: [ 12  | 0 байт/сек ]   DHT: [ 245 / 11 ]
Автор Сообщение

Модератор

С нами: 2 года 4 месяца
Сообщения: 3361
Россия

Сообщение 22 янв 2021, 04:24 

[Цитировать]


Информация о фильме
Название: Линия горизонта
Оригинальное название: Horizon Line
Год выхода: 2020
Жанр: Триллер
Режиссер: Микаэль Марсимаин / Mikael Marcimain
В ролях: Александр Дреймон, Эллисон Уильямс, Кит Дэвид, Пёрл Маки, Джумэйн Хантер, Аманда Кхан, Ламин Тамба, Орелейт Доэрти, Франсуа Грёнвальд, Марк Редмонд

О фильме:
Сара и Джексон собирались полететь на небольшом самолете на свадьбу друга. За штурвалом опытный пилот, и ничто не предвещало беды, пока у того не случился сердечный приступ прямо в небе. Сара и Джексон на огромной высоте, нет никакой связи, неизвестно их точное местонахождение, и главное — они совершенно без понятия, как посадить самолет. Плюс к тому, вокруг только океан и небо, и судя по обстановке, их вот-вот накроет бушующий шторм


Страна: Швеция, США
Студия: SF Studios Production AB, Ombra Films, STX Films
Продолжительность: 01:31:33
Перевод: Профессиональный (полное дублирование) Line

Файл
Кодек: XviD
Качество: WEB-DLRip
Видео: 1884 Кбит/с, 720x304, 23.976 Кадр/с
Звук:
Аудио #1: 48 kHz, AC3 Dolby Digital, 2/0 (L,R) ch, ~192 kbps , Русский, дублированный (чистый звук)
Аудио #2: 48 kHz, AC3 Dolby Digital, 2/0 (L,R) ch, ~192 kbps, Английский
Субтитры: Нет

Семпл


Общее
Полное имя : C:UsersDownloadsHorizon_Line_2020_WEB-DLRip_Line_by_Dalemake.avi
Формат : AVI
Формат/Информация : Audio Video Interleave
Размер файла : 1,46 Гбайт
Продолжительность : 1 ч. 31 м.
Общий поток : 2 282 Кбит/сек
Программа кодирования : VirtualDubMod 1.5.10.3 | www.virtualdub-fr.org || (build 2550/release)
Библиотека кодирования : VirtualDubMod build 2550/release

Видео
Идентификатор : 0
Формат : MPEG-4 Visual
Профиль формата : Advanced [email protected]
Настройки формата : BVOP1 / Custom Matrix
Параметр BVOP формата : 1
Параметр QPel формата : Нет
Параметр GMC формата : Без точки перехода
Параметр матрицы формата : Выборочная
Идентификатор кодека : XVID
Идентификатор кодека/Подсказка : XviD
Продолжительность : 1 ч. 31 м.
Битрейт : 1 884 Кбит/сек
Ширина : 720 пикселей
Высота : 304 пикселя
Соотношение сторон : 2,35:1
Частота кадров : 23,976 (24000/1001) кадра/сек
Цветовое пространство : YUV
Субдискретизация насыщенности : 4:2:0
Битовая глубина : 8 бит
Тип развёртки : Прогрессивная
Метод сжатия : С потерями
Бит/(Пиксели*Кадры) : 0.359
Размер потока : 1,20 Гбайт (83%)
Библиотека кодирования : XviD 69

Аудио #1
Идентификатор : 1
Формат : AC-3
Формат/Информация : Audio Coding 3
Коммерческое название : Dolby Digital
Идентификатор кодека : 2000
Продолжительность : 1 ч. 31 м.
Вид битрейта : Постоянный
Битрейт : 192 Кбит/сек
Каналы : 2 канала
Channel layout : L R
Частота : 48,0 КГц
Частота кадров : 31,250 кадров/сек (1536 SPF)
Метод сжатия : С потерями
Размер потока : 126 Мбайт (8%)
Выравнивание : Разделение по промежуткам
Продолжительность промежутка : 42 мс. (1,00 видеокадр)
Время предзагрузки промежутка : 500 мс.
Service kind : Complete Main

Аудио #2
Идентификатор : 2
Формат : AC-3
Формат/Информация : Audio Coding 3
Коммерческое название : Dolby Digital
Идентификатор кодека : 2000
Продолжительность : 1 ч. 31 м.
Вид битрейта : Постоянный
Битрейт : 192 Кбит/сек
Каналы : 2 канала
Channel layout : L R
Частота : 48,0 КГц
Частота кадров : 31,250 кадров/сек (1536 SPF)
Метод сжатия : С потерями
Размер потока : 126 Мбайт (8%)
Выравнивание : Разделение по промежуткам
Продолжительность промежутка : 42 мс. (1,00 видеокадр)
Время предзагрузки промежутка : 500 мс.
Service kind : Complete Main


Без Рекламы !

Релиз от: dalemake

Download
Для скачивания .torrent файлов необходима регистрация
Сайт не распространяет и не хранит электронные версии произведений, а лишь предоставляет доступ к создаваемому пользователями каталогу ссылок на торрент-файлы, которые содержат только списки хеш-сумм

Страница 1 из 1

Ответить на тему

   Похожие торренты   Торрент 




tracker_crontracker_cron