Регистрация ·  Логин: Пароль: Запомнить   · Забыли пароль?




Ответить на тему
Статистика раздачи
Размер: 25.71 ГБ | Зарегистрирован: 22 янв 2021, 04:24 | .torrent скачан: 0 раз(а), DHT: [ 89 ] раз(а)
Сидеров: [ 12  | 0 байт/сек ]   Личеров: [ 2  | 0 байт/сек ]   DHT: [ 12 / 2 ]
Автор Сообщение

Модератор

С нами: 2 года 4 месяца
Сообщения: 3361
Россия

Сообщение 22 янв 2021, 04:24 

[Цитировать]


Информация о фильме
Название: Все оттенки Токио
Оригинальное название: Lost Girls and Love Hotels
Год выхода: 2020
Жанр: Драма, триллер
Режиссер: Уильям Олссон
В ролях: Александра Даддарио, Такэхиро Хира, Кэрис ван Хаутен, Даша Тэраниси, Марико Цуцуи, Анастасия Насу, Эндрю Ротни, Элизабет Ларена, Асука Куросава, Кейт Кастонгуэй

О фильме: Пытаясь бежать от прошлого, Маргарет переезжает в Японию. Днем она преподает английский, а ночью ищет впечатлений в экзотической жизни Токио с его шумными барами, опасными связями и отелями любви. Но однажды в городе пропадает очень похожая на нее девушка, а саму Маргарет затягивает безумный роман с загадочным красавцем-якудза, который втягивает ее в мир запретных наслаждений.



Страна: США, Япония
Студия: Blackbird, Wandering Trail Pictures
Продолжительность: 01:36:56
Перевод: Дублированный

Формат: MKV
Качество: BDRemux 1080p
Видео: MPEG-4 AVC, 1920x1080 (16:9), 24.000 fps, 34.1 Mbps, 0.685 bit/pixel
Аудио #01: 48 kHz, AC3, 5.1, 384 Kbps | RUS |
Аудио #02: 48 kHz, AC3, 5.1, 384 Kbps | UKR
Аудио #03: 48 kHz, DTS-HD MA, 5.1 ch, 3100 Kbps | Оригинал | ENG |
Субтитры: Английские
General
Unique ID : 206202254591699580643350292816297313555 (0x9B211C1374016C3294A693A16871C513)
Complete name : E:1Lost.Girls.and.Love.Hotels.2020.BDRemux.1080p.ExKinoRay.mkv
Format : Matroska
Format version : Version 4
File size : 25.7 GiB
Duration : 1 h 36 min
Overall bit rate mode : Variable
Overall bit rate : 38.0 Mb/s
Movie name : Lost Girls and Love Hotels 2020 from ExKinoRay
Encoded date : UTC 2021-01-15 03:39:03
Writing application : mkvmerge v7.3.0 ('Nouages') 64bit built on Oct 22 2014 18:53:34
Writing library : libebml v1.3.0 + libmatroska v1.4.1

Video
ID : 1
Format : AVC
Format/Info : Advanced Video Codec
Format profile : [email protected]
Format settings : CABAC / 4 Ref Frames
Format settings, CABAC : Yes
Format settings, Reference : 4 frames
Format settings, GOP : M=3, N=12
Codec ID : V_MPEG4/ISO/AVC
Duration : 1 h 36 min
Bit rate mode : Variable
Bit rate : 34.1 Mb/s
Maximum bit rate : 36.0 Mb/s
Width : 1 920 pixels
Height : 1 080 pixels
Display aspect ratio : 16:9
Frame rate mode : Constant
Frame rate : 24.000 FPS
Color space : YUV
Chroma subsampling : 4:2:0
Bit depth : 8 bits
Scan type : Progressive
Bits/(Pixel*Frame) : 0.685
Stream size : 23.1 GiB (90%)
Language : English
Default : Yes
Forced : No

Audio #1
ID : 2
Format : AC-3
Format/Info : Audio Coding 3
Commercial name : Dolby Digital
Codec ID : A_AC3
Duration : 1 h 36 min
Bit rate mode : Constant
Bit rate : 384 kb/s
Channel(s) : 6 channels
Channel layout : L R C LFE Ls Rs
Sampling rate : 48.0 kHz
Frame rate : 31.250 FPS (1536 SPF)
Compression mode : Lossy
Stream size : 266 MiB (1%)
Language : Russian
Service kind : Complete Main
Default : Yes
Forced : No

Audio #2
ID : 3
Format : AC-3
Format/Info : Audio Coding 3
Commercial name : Dolby Digital
Codec ID : A_AC3
Duration : 1 h 36 min
Bit rate mode : Constant
Bit rate : 384 kb/s
Channel(s) : 6 channels
Channel layout : L R C LFE Ls Rs
Sampling rate : 48.0 kHz
Frame rate : 31.250 FPS (1536 SPF)
Compression mode : Lossy
Stream size : 266 MiB (1%)
Language : Ukrainian
Service kind : Complete Main
Default : No
Forced : No

Audio #3
ID : 4
Format : DTS XLL
Format/Info : Digital Theater Systems
Commercial name : DTS-HD Master Audio
Codec ID : A_DTS
Duration : 1 h 36 min
Bit rate mode : Variable
Bit rate : 3 100 kb/s
Channel(s) : 6 channels
Channel layout : C L R Ls Rs LFE
Sampling rate : 48.0 kHz
Frame rate : 93.750 FPS (512 SPF)
Bit depth : 24 bits
Compression mode : Lossless
Stream size : 2.10 GiB (8%)
Language : English
Default : No
Forced : No

Text
ID : 5
Format : UTF-8
Codec ID : S_TEXT/UTF8
Codec ID/Info : UTF-8 Plain Text
Duration : 1 h 29 min
Bit rate : 23 b/s
Count of elements : 662
Stream size : 15.6 KiB (0%)
Title : SDH
Language : English
Default : No
Forced : No

Menu
00:00:00.000 : en:Глава 01
00:04:18.583 : en:Глава 02
00:10:44.708 : en:Глава 03
00:16:31.250 : en:Глава 04
00:24:10.625 : en:Глава 05
00:33:42.875 : en:Глава 06
00:40:04.625 : en:Глава 07
00:45:47.708 : en:Глава 08
00:51:36.708 : en:Глава 09
00:55:53.750 : en:Глава 10
01:02:25.292 : en:Глава 11
01:09:24.042 : en:Глава 12
01:15:03.375 : en:Глава 13
01:23:38.833 : en:Глава 14
01:29:17.417 : en:Глава 15
01:32:20.208 : en:Глава 16


Релиз от:

Автор релиза:

Download
Для скачивания .torrent файлов необходима регистрация
Сайт не распространяет и не хранит электронные версии произведений, а лишь предоставляет доступ к создаваемому пользователями каталогу ссылок на торрент-файлы, которые содержат только списки хеш-сумм

Страница 1 из 1

Ответить на тему

   Похожие торренты   Торрент 




tracker_crontracker_cron