Регистрация ·  Логин: Пароль: Запомнить   · Забыли пароль?




Ответить на тему
Статистика раздачи
Размер: 2.05 ГБ | Зарегистрирован: 22 янв 2021, 04:24 | .torrent скачан: 0 раз(а), DHT: [ 35 ] раз(а)
Сидеров: [ 36  | 0 байт/сек ]   Личеров: [ 0  | 0 байт/сек ]   DHT: [ 36 / 0 ]
Автор Сообщение

Модератор

С нами: 2 года 4 месяца
Сообщения: 3361
Россия

Сообщение 22 янв 2021, 04:24 

[Цитировать]

Рождество кота Боба / A Christmas Gift from Bob

Информация о фильме:
Название: Рождество кота Боба
Оригинальное название: A Christmas Gift from Bob
Год выхода: 2020
Жанр: Семейный
Режиссер: Чарльз Мартин Смит
В ролях: Люк Тредэвэй, Анна Уилсон-Джонс, Тим Плестер, Кристина Тонтери-Янг, Дэйзи Баджер, Нина Вадиа, кот Боб, Стивен МакКоул, Фалдут Шарма, Селин Джонс
Описание: До встречи с котом Бобом Джеймс не любил Рождество, но рыжий пушистый хулиган всё изменил. Он в буквальном смысле подарил своему хозяину новую жизнь, сотворив настоящее рождественское чудо. Ведь даже если у тебя пусто в кармане, а во всём городе отключили свет, праздник должен состояться!

Страна: Великобритания
Студия: Parkhouse Pictures, Studio Pictures, Align
Продолжительность: 01:32:18
Перевод: Дублированный - IVI

Информация о файле:
Кодек: AVC
Формат: MKV
Качество: WEB-DLRip-AVC
Видео: MPEG-4 AVC, 1024x426, 23.976 fps, 2409 kb/s
Аудио RU: 48 kHz, AC3, 5.1, 384 Kbps
Аудио EN: 48 kHz, AC3, 5.1, 384 Kbps
Навигация по главам: Да


x264 info: frame I:1263 Avg QP:14.06 size: 80196
x264 info: frame P:34115 Avg QP:16.65 size: 25630
x264 info: frame B:97409 Avg QP:18.24 size: 7093
x264 info: consecutive B-frames: 2.7% 5.1% 6.4% 59.2% 8.2% 14.5% 0.9% 0.7% 0.2% 0.6% 0.1% 0.5% 1.0%
General
Unique ID : 91743425016680484358247149831140125906 (0x45052414E86286BA64823067A7BFACD2)
Complete name : D:uTorrentРипы_от_wolf1245_MediaBitA.Christmas.Gift.From.Bob.2020.DUB.2.05Gb.WEB-DLRip-AVC_wolf1245_MediaBit.mkv
Format : Matroska
Format version : Version 4
File size : 2.05 GiB
Duration : 1 h 32 min
Overall bit rate : 3 177 kb/s
Movie name : A.Christmas.Gift.From.Bob.2020.DUB.2.05Gb.WEB-DLRip-AVC_wolf1245_MediaBit
Encoded date : UTC 2021-01-14 16:45:33
Writing application : mkvmerge v52.0.0 ('Secret For The Mad') 64-bit
Writing library : libebml v1.4.1 + libmatroska v1.6.2
Video
ID : 1
Format : AVC
Format/Info : Advanced Video Codec
Format profile : [email protected]
Format settings : CABAC / 12 Ref Frames
Format settings, CABAC : Yes
Format settings, Reference frames : 12 frames
Codec ID : V_MPEG4/ISO/AVC
Duration : 1 h 32 min
Bit rate : 2 409 kb/s
Width : 1 024 pixels
Height : 426 pixels
Display aspect ratio : 2.40:1
Frame rate mode : Constant
Frame rate : 23.976 (24000/1001) FPS
Color space : YUV
Chroma subsampling : 4:2:0
Bit depth : 8 bits
Scan type : Progressive
Bits/(Pixel*Frame) : 0.230
Stream size : 1.55 GiB (76%)
Title : _wolf1245_MediaBit
Writing library : x264 core 157 r2958 57baac4
Encoding settings : cabac=1 / ref=12 / deblock=1:-3:-3 / analyse=0x3:0x133 / me=umh / subme=10 / psy=1 / psy_rd=1.05:0.05 / mixed_ref=1 / me_range=48 / chroma_me=1 / trellis=2 / 8x8dct=1 / cqm=0 / deadzone=21,11 / fast_pskip=0 / chroma_qp_offset=-3 / threads=10 / lookahead_threads=2 / sliced_threads=0 / nr=0 / decimate=0 / interlaced=0 / bluray_compat=0 / constrained_intra=0 / bframes=12 / b_pyramid=2 / b_adapt=2 / b_bias=0 / direct=3 / weightb=1 / open_gop=0 / weightp=2 / keyint=240 / keyint_min=24 / scenecut=40 / intra_refresh=0 / rc_lookahead=60 / rc=2pass / mbtree=0 / bitrate=2409 / ratetol=1.0 / qcomp=0.60 / qpmin=0 / qpmax=69 / qpstep=4 / cplxblur=20.0 / qblur=0.5 / vbv_maxrate=50000 / vbv_bufsize=62500 / nal_hrd=none / filler=0 / ip_ratio=1.40 / pb_ratio=1.30 / aq=1:0.80
Language : English
Default : Yes
Forced : No
Color range : Limited
Color primaries : BT.709
Transfer characteristics : BT.709
Matrix coefficients : BT.709
Audio #1
ID : 2
Format : AC-3
Format/Info : Audio Coding 3
Commercial name : Dolby Digital
Codec ID : A_AC3
Duration : 1 h 32 min
Bit rate mode : Constant
Bit rate : 384 kb/s
Channel(s) : 6 channels
Channel layout : L R C LFE Ls Rs
Sampling rate : 48.0 kHz
Frame rate : 31.250 FPS (1536 SPF)
Compression mode : Lossy
Stream size : 254 MiB (12%)
Title : DUB
Language : Russian
Service kind : Complete Main
Default : Yes
Forced : No
Audio #2
ID : 3
Format : AC-3
Format/Info : Audio Coding 3
Commercial name : Dolby Digital
Codec ID : A_AC3
Duration : 1 h 32 min
Bit rate mode : Constant
Bit rate : 384 kb/s
Channel(s) : 6 channels
Channel layout : L R C LFE Ls Rs
Sampling rate : 48.0 kHz
Frame rate : 31.250 FPS (1536 SPF)
Compression mode : Lossy
Stream size : 254 MiB (12%)
Title : Original
Language : English
Service kind : Complete Main
Default : No
Forced : No
Menu
00:00:00.000 : :1
00:09:49.000 : :2
00:20:47.000 : :3
00:29:44.000 : :4
00:40:34.000 : :5
00:50:15.000 : :6
01:00:58.000 : :7
01:10:10.000 : :8
01:21:07.000 : :9
01:26:37.000 : :10

Релиз от: & &

Download
Для скачивания .torrent файлов необходима регистрация
Сайт не распространяет и не хранит электронные версии произведений, а лишь предоставляет доступ к создаваемому пользователями каталогу ссылок на торрент-файлы, которые содержат только списки хеш-сумм

Страница 1 из 1

Ответить на тему

   Похожие торренты   Торрент 




tracker_crontracker_cron