Регистрация ·  Логин: Пароль: Запомнить   · Забыли пароль?




Ответить на тему
Статистика раздачи
Размер: 3.47 ГБ | Зарегистрирован: 22 янв 2021, 04:24 | .torrent скачан: 0 раз(а), DHT: [ 2025 ] раз(а)
Сидеров: [ 75  | 0 байт/сек ]   Личеров: [ 0  | 0 байт/сек ]   DHT: [ 75 / 0 ]
Автор Сообщение

Модератор

С нами: 2 года 4 месяца
Сообщения: 3361
Россия

Сообщение 22 янв 2021, 04:24 

[Цитировать]


Информация о фильме
Название: Рождество кота Боба
Оригинальное название: A Christmas Gift from Bob
Год выхода: 2020
Жанр: Семейный
Режиссер: Чарльз Мартин Смит
В ролях: Люк Тредэвэй, Анна Уилсон-Джонс, Тим Плестер, Кристина Тонтери-Янг, Дэйзи Баджер, Нина Вадиа, кот Боб, Стивен МакКоул, Фалдут Шарма, Селин Джонс



О фильме: До встречи с котом Бобом Джеймс не любил Рождество, но рыжий пушистый хулиган всё изменил. Он в буквальном смысле подарил своему хозяину новую жизнь, сотворив настоящее рождественское чудо. Ведь даже если у тебя пусто в кармане, а во всём городе отключили свет, праздник должен состояться!

Страна: Великобритания
Студия: Parkhouse Pictures, Studio Pictures, Align
Продолжительность: 01:32:18
Перевод: Дублированный

Качество: WEB-DL 1080p
Видео: MPEG-4 AVC, 1920x798, 4608 Кbit/s, 23.976 fps
Аудио #01: 48 kHz, AC3, 5.1, 384 Kbps | Дублированный | RUS |
Аудио #02: 48 kHz, AC3, 5.1, 384 Kbps | Оригинал | ENG |
Субтитры: Русские субтитры (полные, отдельно)



General
Unique ID : 305602651931144466537521191575714228529 (0xE5E8EE0A3ED9C9252370737272636931)
Complete name : E:VideoFirstA.Christmas.Gift.From.Bob.2020.WEB-DL.1080p.seleZen.mkv
Format : Matroska
Format version : Version 4
File size : 3.47 GiB
Duration : 1 h 32 min
Overall bit rate : 5 378 kb/s
Movie name : A.Christmas.Gift.From.Bob.2020 from seleZen
Encoded date : UTC 2021-01-13 23:33:27
Writing application : mkvmerge v40.0.0 ('Old Town Road + Pony') 64-bit
Writing library : libebml v1.3.9 + libmatroska v1.5.2

Video
ID : 1
Format : AVC
Format/Info : Advanced Video Codec
Format profile : [email protected]
Format settings : CABAC / 5 Ref Frames
Format settings, CABAC : Yes
Format settings, Reference : 5 frames
Codec ID : V_MPEG4/ISO/AVC
Duration : 1 h 32 min
Bit rate : 4 608 kb/s
Width : 1 920 pixels
Height : 798 pixels
Display aspect ratio : 2.40:1
Frame rate mode : Constant
Frame rate : 23.976 FPS
Color space : YUV
Chroma subsampling : 4:2:0
Bit depth : 8 bits
Scan type : Progressive
Bits/(Pixel*Frame) : 0.125
Stream size : 2.97 GiB (86%)
Language : English
Default : Yes
Forced : No
Color range : Limited
Color primaries : BT.709
Transfer characteristics : BT.709
Matrix coefficients : BT.709

Audio #1
ID : 2
Format : AC-3
Format/Info : Audio Coding 3
Commercial name : Dolby Digital
Codec ID : A_AC3
Duration : 1 h 32 min
Bit rate mode : Constant
Bit rate : 384 kb/s
Channel(s) : 6 channels
Channel layout : L R C LFE Ls Rs
Sampling rate : 48.0 kHz
Frame rate : 31.250 FPS (1536 SPF)
Compression mode : Lossy
Stream size : 254 MiB (7%)
Title : iTunes
Language : Russian
Service kind : Complete Main
Default : Yes
Forced : Yes

Audio #2
ID : 3
Format : AC-3
Format/Info : Audio Coding 3
Commercial name : Dolby Digital
Codec ID : A_AC3
Duration : 1 h 32 min
Bit rate mode : Constant
Bit rate : 384 kb/s
Channel(s) : 6 channels
Channel layout : L R C LFE Ls Rs
Sampling rate : 48.0 kHz
Frame rate : 31.250 FPS (1536 SPF)
Compression mode : Lossy
Stream size : 254 MiB (7%)
Title : Original
Language : English
Service kind : Complete Main
Default : No
Forced : No

Menu
00:00:00.000 : en:1
00:09:49.000 : en:2
00:20:47.000 : en:3
00:29:44.000 : en:4
00:40:34.000 : en:5
00:50:15.000 : en:6
01:00:58.000 : en:7
01:10:10.000 : en:8
01:21:07.000 : en:9
01:26:37.000 : en:10


Релиз: Присоединяйся к:


Download
Для скачивания .torrent файлов необходима регистрация
Сайт не распространяет и не хранит электронные версии произведений, а лишь предоставляет доступ к создаваемому пользователями каталогу ссылок на торрент-файлы, которые содержат только списки хеш-сумм

Страница 1 из 1

Ответить на тему

   Похожие торренты   Торрент 




cron
tracker_crontracker_cron