Регистрация ·  Логин: Пароль: Запомнить   · Забыли пароль?




Ответить на тему
Статистика раздачи
Размер: 3.3 ГБ | Зарегистрирован: 22 янв 2021, 04:23 | .torrent скачан: 0 раз(а), DHT: [ 0 ] раз(а)
Сидеров: [ 0  | 0 байт/сек ]   Личеров: [ 0  | 0 байт/сек ]   DHT: [ 0 / 0 ]
Автор Сообщение

Модератор

С нами: 2 года 5 месяцев
Сообщения: 3401
Россия

Сообщение 22 янв 2021, 04:23 

[Цитировать]


Информация о фильме
Название: Мясники
Оригинальное название: Butchers
Год выхода: 2020
Жанр: ужасы
Режиссер: Адриан Лэнгли
В ролях: Саймон Филлипс, Майкл Суоттон, Джули Мейнвилл, Энн-Кэролин Бинетт, Джеймс Хикс, Ник Аллан, Блейк Каннинг, Саманта Де Бенедет, Джонатан Ларджи, Фредерик Сторм

О фильме:
Семья мясников-садистов окопалась в глубинке, и любой, кто пересечет их владения, станет тушей для разделки.
ПРИСУТСТВУЕТ НЕНОРМАТИВНАЯ ЛЕКСИКА



Страна: Канада
Студия: Red Hound Films, Black Mandala, UNIT XIX
Продолжительность: 01:32:48
Перевод: Любительский одноголосый, закадровый [datynet]

Файл
Кодек: H.264
Качество: WEB-DL 1080p
Видео: AVC, 1908x792 (2.40:1), 23. 976 fps ~ 4507 Kbps
Звук:
AC3, 48 KHz,2 ch ~ 192 Kb/s (русский)
AC3, 48 KHz, 6 ch ~384 Kb/s (английский)
Субтитры: английские

Общее
Уникальный идентификатор : 194510723624753388327579989690583324853 (0x9255671838982DE88C0078F804D798B5)
Полное имя : J:wotButchers.2020.1080p.mkv
Формат : Matroska
Версия формата : Version 4
Размер файла : 3,30 Гбайт
Продолжительность : 1 ч. 32 м.
Общий поток : 5 085 Кбит/сек
Дата кодирования : UTC 2021-01-13 16:13:34
Программа кодирования : mkvmerge v7.7.0 ('Six Voices') 32bit built on Feb 28 2015 23:23:00
Библиотека кодирования : libebml v1.3.1 + libmatroska v1.4.2

Видео
Идентификатор : 1
Формат : AVC
Формат/Информация : Advanced Video Codec
Профиль формата : [email protected]
Настройки формата : CABAC / 5 Ref Frames
Параметр CABAC формата : Да
Параметр RefFrames формата : 5 кадров
Идентификатор кодека : V_MPEG4/ISO/AVC
Продолжительность : 1 ч. 32 м.
Битрейт : 4 507 Кбит/сек
Ширина : 1 908 пикселей
Высота : 792 пикселя
Соотношение сторон : 2,40:1
Режим частоты кадров : Постоянный
Частота кадров : 23,976 (24000/1001) кадра/сек
Цветовое пространство : YUV
Субдискретизация насыщенности : 4:2:0
Битовая глубина : 8 бит
Тип развёртки : Прогрессивная
Бит/(Пиксели*Кадры) : 0.124
Размер потока : 2,92 Гбайт (89%)
Язык : English
Default : Да
Forced : Нет
Цветовой диапазон : Limited
Основные цвета : BT.709
Характеристики трансфера : BT.709
Коэффициенты матрицы : BT.709

Аудио #1
Идентификатор : 2
Формат : AC-3
Формат/Информация : Audio Coding 3
Коммерческое название : Dolby Digital
Идентификатор кодека : A_AC3
Продолжительность : 1 ч. 32 м.
Вид битрейта : Постоянный
Битрейт : 192 Кбит/сек
Каналы : 2 канала
Channel layout : L R
Частота : 48,0 КГц
Частота кадров : 31,250 кадров/сек (1536 SPF)
Метод сжатия : С потерями
Размер потока : 127 Мбайт (4%)
Заголовок : VO [datynet]
Язык : Russian
Service kind : Complete Main
Default : Да
Forced : Нет

Аудио #2
Идентификатор : 3
Формат : AC-3
Формат/Информация : Audio Coding 3
Коммерческое название : Dolby Digital
Идентификатор кодека : A_AC3
Продолжительность : 1 ч. 32 м.
Вид битрейта : Постоянный
Битрейт : 384 Кбит/сек
Каналы : 6 каналов
Channel layout : L R C LFE Ls Rs
Частота : 48,0 КГц
Частота кадров : 31,250 кадров/сек (1536 SPF)
Метод сжатия : С потерями
Размер потока : 255 Мбайт (8%)
Заголовок : DD 5.1
Язык : English
Service kind : Complete Main
Default : Нет
Forced : Нет

Текст
Идентификатор : 4
Формат : UTF-8
Идентификатор кодека : S_TEXT/UTF8
Идентификатор кодека/Информация : UTF-8 Plain Text
Продолжительность : 1 ч. 30 м.
Битрейт : 31 бит/сек
Count of elements : 897
Размер потока : 20,5 Кбайт (0%)
Язык : English
Default : Нет
Forced : Нет


СЕМПЛ



Download
Для скачивания .torrent файлов необходима регистрация
Сайт не распространяет и не хранит электронные версии произведений, а лишь предоставляет доступ к создаваемому пользователями каталогу ссылок на торрент-файлы, которые содержат только списки хеш-сумм

Страница 1 из 1

Ответить на тему

   Похожие торренты   Торрент