Регистрация ·  Логин: Пароль: Запомнить   · Забыли пароль?




Ответить на тему
Статистика раздачи
Размер: 3.53 ГБ | Зарегистрирован: 22 янв 2021, 04:23 | .torrent скачан: 0 раз(а), DHT: [ 0 ] раз(а)
Сидеров: [ 0  | 0 байт/сек ]   Личеров: [ 0  | 0 байт/сек ]   DHT: [ 0 / 0 ]
Автор Сообщение

Модератор

С нами: 2 года 4 месяца
Сообщения: 3361
Россия

Сообщение 22 янв 2021, 04:23 

[Цитировать]


Информация о фильме
Название: Друзья на свою голову
Оригинальное название: Le bonheur des uns...
Год выхода: 2020
Жанр: комедия
Режиссер: Даниэль Коэн
В ролях: Беренис Бежо, Венсан Кассель, Франсуа Дамиенс, Флоренс Форести, Даниэль Коэн, Алис Карель, Брюно Гуэри, Биг Джон, Кэролайн Питти

О фильме: Леа и Марк, Карин и Фрэнсис – две пары закадычных друзей. Но когда скромная тихоня Лея публикует роман и он в одно мгновение становится бестселлером, отношения между семьями дают сбой. Ревность, шок, зависть: только став успешным, можно узнать, кто твой настоящий друг.



Страна: Франция
Студия: Cinéfrance Studios, SND Films, Artémis Productions
Продолжительность: 01:42:08
Озвучивание: Дублированный | iTunes

Файл
Формат: MKV
Качество: WEB-DL 1080p
Видео: MPEG-4 AVC, 4466 Kbit/s, 1920x804, 24 fps
Аудио: 48 kHz, AC3 Dolby Digital, 3/2 (L, C, R, l, r) + LFE ch, ~384 kbps
Субтитры: Нет
Дополнительно: Сохранены оригинальные чаптеры.

Релиз группы: &

Druzya.na.svoyu.golovu.2020.WEB-DL.1080p.ELEKTRI4KA.UNIONGANG.mkv
Format : Matroska
Format version : Version 2
File size : 3.53 GiB
Duration : 1 h 42 min
Overall bit rate : 4 948 kb/s
Encoded date : UTC 2021-01-13 09:26:41
Writing application : mkvmerge v5.8.0 ('No Sleep / Pillow') built on Sep 2 2012 15:37:04
Writing library : libebml v1.2.3 + libmatroska v1.3.0

Video
ID : 1
Format : AVC
Format/Info : Advanced Video Codec
Format profile : [email protected]
Format settings, CABAC : Yes
Format settings, Reference frames : 5 frames
Muxing mode : Header stripping
Codec ID : V_MPEG4/ISO/AVC
Duration : 1 h 42 min
Bit rate : 4 466 kb/s
Width : 1 920 pixels
Height : 804 pixels
Display aspect ratio : 2.40:1
Frame rate mode : Constant
Frame rate : 24.000 FPS
Color space : YUV
Chroma subsampling : 4:2:0
Bit depth : 8 bits
Scan type : Progressive
Bits/(Pixel*Frame) : 0.121
Stream size : 3.19 GiB (90%)
Language : French
Default : Yes
Forced : No
Color range : Limited
Color primaries : BT.709
Transfer characteristics : BT.709
Matrix coefficients : BT.709

Audio
ID : 2
Format : AC-3
Format/Info : Audio Coding 3
Mode extension : CM (complete main)
Format settings, Endianness : Big
Muxing mode : Header stripping
Codec ID : A_AC3
Duration : 1 h 42 min
Bit rate mode : Constant
Bit rate : 384 kb/s
Channel(s) : 6 channels
Channel positions : Front: L C R, Side: L R, LFE
Sampling rate : 48.0 kHz
Frame rate : 31.250 FPS (1536 spf)
Bit depth : 16 bits
Compression mode : Lossy
Stream size : 281 MiB (8%)
Language : Russian
Default : Yes
Forced : Yes

Menu
00:00:00.000 : ru:Глава 1
00:04:39.125 : ru:Глава 2
00:13:46.208 : ru:Глава 3
00:20:16.124 : ru:Глава 4
00:27:16.874 : ru:Глава 5
00:35:12.624 : ru:Глава 6
00:43:18.207 : ru:Глава 7
00:52:51.415 : ru:Глава 8
01:01:26.456 : ru:Глава 9
01:09:02.747 : ru:Глава 10
01:17:23.288 : ru:Глава 11
01:24:08.829 : ru:Глава 12
01:30:29.079 : ru:Глава 13
01:34:56.245 : ru:Глава 14



Download
Для скачивания .torrent файлов необходима регистрация
Сайт не распространяет и не хранит электронные версии произведений, а лишь предоставляет доступ к создаваемому пользователями каталогу ссылок на торрент-файлы, которые содержат только списки хеш-сумм

Страница 1 из 1

Ответить на тему

   Похожие торренты   Торрент 




tracker_crontracker_cron