Регистрация ·  Логин: Пароль: Запомнить   · Забыли пароль?




Ответить на тему
Статистика раздачи
Размер: 745.07 МБ | Зарегистрирован: 22 янв 2021, 04:21 | .torrent скачан: 0 раз(а), DHT: [ 773 ] раз(а)
Сидеров: [ 28  | 0 байт/сек ]   Личеров: [ 0  | 0 байт/сек ]   DHT: [ 28 / 0 ]
Автор Сообщение

Модератор

С нами: 2 года 4 месяца
Сообщения: 3361
Россия

Сообщение 22 янв 2021, 04:21 

[Цитировать]

Информация о фильме
Название: Брешь
Оригинальное название: Breach
Год выхода: 2020
Жанр: фантастика, боевик, ужасы
Режиссер: Джон Суитц
В ролях: Коуди Кирсли, Брюс Уиллис, Рэйчел Николс, Тимоти В. Мерфи, Кассандра Клементи, Каллэн Мулвей, Кори Лардж, Томас Джейн, Джонни Месснер, Йохан Урб

О фильме:
2242 год. Земля обречена. Среди 50 миллионов избранных, летящих к новой планете, — беременная дочь капитана корабля. Её парня Ноя нет в списках, поэтому ему приходится обманом проникнуть на борт и притворяться уборщиком. Пока большая часть пассажиров и команды находится в анабиозе, Ной в компании бывалого напарника Клэя занимается ежедневной рутиной и знакомится с коллегами. Но вскоре на борту обнаруживается агрессивная инопланетная форма жизни, которая угрожает самому существованию человечества.


Страна: Канада
Студия: 308 Ent, Almost Never Films Inc., Aloe Entertainment
Продолжительность: 01:32:32
Перевод: Любительский одноголосый, закадровый [feofanio]
ПРИСУТСТВУЕТ НЕНОРМАТИВНАЯ ЛЕКСИКА
Субтитры: English

Файл
Формат: Matroska
Качество: WEB-DLRip-AVC
Видео: 736x306 at 23.976 fps, [email protected], ~1045 kbps, 0.194 bpp
Аудио: AAC, 2 ch, ~78 kbps - | Русский | -
Формат субтитров: softsub (SRT)

***Релиз от: -=DoMiNo=-

x264 [info]: frame I:1541 Avg QP:13.13 size: 37874
x264 [info]: frame P:28189 Avg QP:16.08 size: 11560
x264 [info]: frame B:103388 Avg QP:18.28 size: 3298

General
Format : Matroska
Format version : Version 4
File size : 745 MiB
Duration : 1 h 32 min
Overall bit rate : 1 126 kb/s
Movie name : Брешь.(2020).WEB-DLRip-AVC.[-=DoMiNo=-]
Encoded date : UTC 2021-01-08 14:39:08
Writing application : mkvmerge v52.0.0 ('Secret For The Mad') 64-bit
Writing library : libebml v1.4.1 + libmatroska v1.6.2
Cover : Yes
Attachments : Cover.jpg / Cover 2.jpg

Video
ID : 1
Format : AVC
Format/Info : Advanced Video Codec
Format profile : [email protected]
Format settings : CABAC / 10 Ref Frames
Format settings, CABAC : Yes
Format settings, Reference : 10 frames
Codec ID : V_MPEG4/ISO/AVC
Duration : 1 h 32 min
Bit rate : 1 045 kb/s
Width : 736 pixels
Height : 306 pixels
Display aspect ratio : 2.40:1
Frame rate mode : Constant
Frame rate : 23.976 (24000/1001) FPS
Color space : YUV
Chroma subsampling : 4:2:0
Bit depth : 8 bits
Scan type : Progressive
Bits/(Pixel*Frame) : 0.194
Stream size : 692 MiB (93%)
Title : -=DoMiNo=-
Writing library : x264 core 161 r3033 0d754ec
Encoding settings : cabac=1 / ref=10 / deblock=1:-2:-1 / analyse=0x3:0x133 / me=umh / subme=10 / psy=1 / psy_rd=1.00:0.15 / mixed_ref=1 / me_range=32 / chroma_me=1 / trellis=2 / 8x8dct=1 / cqm=0 / deadzone=21,11 / fast_pskip=0 / chroma_qp_offset=-3 / threads=6 / lookahead_threads=1 / sliced_threads=0 / nr=0 / decimate=0 / interlaced=0 / bluray_compat=0 / constrained_intra=0 / bframes=12 / b_pyramid=2 / b_adapt=2 / b_bias=0 / direct=3 / weightb=1 / open_gop=0 / weightp=2 / keyint=250 / keyint_min=23 / scenecut=40 / intra_refresh=0 / rc_lookahead=60 / rc=2pass / mbtree=0 / bitrate=1045 / ratetol=1.0 / qcomp=0.60 / qpmin=0 / qpmax=69 / qpstep=4 / cplxblur=20.0 / qblur=0.5 / vbv_maxrate=50000 / vbv_bufsize=62500 / nal_hrd=none / filler=0 / ip_ratio=1.40 / pb_ratio=1.30 / aq=2:1.00
Language : English
Default : Yes
Forced : No
Color range : Limited
Color primaries : BT.709
Transfer characteristics : BT.709
Matrix coefficients : BT.709

Audio
ID : 2
Format : AAC LC SBR
Format/Info : Advanced Audio Codec Low Complexity with Spectral Band Replication
Commercial name : HE-AAC
Format settings : Explicit
Codec ID : A_AAC-2
Duration : 1 h 32 min
Bit rate : 78.7 kb/s
Channel(s) : 2 channels
Channel layout : L R
Sampling rate : 48.0 kHz
Frame rate : 23.438 FPS (2048 SPF)
Compression mode : Lossy
Stream size : 52.1 MiB (7%)
Title : LVO
Language : Russian
Default : Yes
Forced : No

Text
ID : 3
Format : UTF-8
Codec ID : S_TEXT/UTF8
Codec ID/Info : UTF-8 Plain Text
Duration : 1 h 28 min
Bit rate : 52 b/s
Count of elements : 1369
Stream size : 34.2 KiB (0%)
Language : English
Default : No
Forced : No

Menu
00:00:00.000 : :Глава 01
00:07:00.000 : :Глава 02
00:14:00.000 : :Глава 03
00:21:00.000 : :Глава 04
00:28:00.000 : :Глава 05
00:35:00.000 : :Глава 06
00:42:00.000 : :Глава 07
00:49:00.000 : :Глава 08
00:56:00.000 : :Глава 09
01:03:00.000 : :Глава 10
01:10:00.000 : :Глава 11
01:17:00.000 : :Глава 12
01:24:00.000 : :Глава 13
01:31:00.000 : :Глава 14

Download
Для скачивания .torrent файлов необходима регистрация
Сайт не распространяет и не хранит электронные версии произведений, а лишь предоставляет доступ к создаваемому пользователями каталогу ссылок на торрент-файлы, которые содержат только списки хеш-сумм

Страница 1 из 1

Ответить на тему

   Похожие торренты   Торрент 




tracker_crontracker_cron